Browse Collections Artists Sources   Search Dates

Add Show    List Management    Help


Grateful Dead 06/23/93
Deer Creek Music Center, Noblesville, IN
Comments Add Comment    Source Collectors    Add to Collection    Add to Want List    History
Source # 34653 Other Sources
Entered by dr.unclear
Checksums ffp , flac-md5
Disc Counts 2 / 3
Media Size
Date Circulated
Date Added

05/11/2006
Source Summary flac16/48; Recording Detail: Taped by Jamie Young and Clay Brennecke - Row N Seat 13 AMS ST-250 microphone in the Blumlein Pattern on a Cool-Lux MD5500 Collapsible Light Stand both Sets 6"0' in air > AMS Microphone Preamp > Modified Sony TCD D-10 Professional DAT machine Transfer Detail: DAT > TASCAM DA-20 > M-Audio FireWire solo > Soundforge 8.0 wav DAT(1) 
  Archive
Source Information - Download Text | Download Zip
Grateful Dead
6-23-1993
Deer Creek
Noblesville, IN

16-bit/ 48 kHz transfer

Digital FOB Audience > DAT > WAV > FLAC
-
Soundfield AMS Mic (Cardiod Configuration) -> Sony D10 Pro Modified

Set 1 Hand Held - Set 2 Stand


Set 1/ CD 1:   [53:07]
1- crowd/tuning  [2:34]
2- Let The Good Times Roll  [5:05]
3- Hell In A Bucket  [7:37]
4- Lazy River Road  [7:08]
5- Memphis Blues  [10:08]
6- Loser  [7:53]
7- Broken Arrow  [6:12]
8- Easy Answers  [6:29]

Set 2/CD 2:  [62:44]
1- Crowd  [2:53]
2- Samson and Delilah  [8:09]
3- Way to Go Home  [6:22]
4- Wave to the Wind  [7:36]
5- Terrapin Station  [12:15]
6- Terrapin Jam  [12:38]
7- Drumz  [12:51]

CD 3:  [42:28]
1- Space  [17:27]
2- Dark Star  [6:52]
3- The Wheel  [4:36]
4- Good Lovin'  [9:17]
5- (e)Lucy in the Sky With Diamonds  [4:16]


Recording Detail:
Taped by Jamie Young and Clay Brennecke - Row N Seat 13
AMS ST-250 microphone in the Blumlein Pattern on a Cool-Lux MD5500 Collapsible Light Stand both Sets 6"0' in air > AMS Microphone Preamp > Modified Sony TCD D-10 Professional DAT machine


Transfer Detail:
DAT > TASCAM DA-20 > M-Audio FireWire solo > Soundforge 8.0 wav
DAT(1)


Edit Detail:
Clicks and Pops (too numerous to list), removed individually in Adobe Audition 1.5
d1t02 (0:20:07-0:20:71) digital zipper static, patched from alternate source*
d1t02 (2:43:10-2:44:20) digital zipper static, patched from alternate source*
d1t02 (1:00) 0.30 sec Firecracker, normalized -6 dB
d2t01 (0:28) 0:15 sec Balloon pop, normalized -5 dB
d2t07 (0:00) 0.28 sec invasive wOOt, Chebychev notch filter at 1kHz to dampen
d3t02 (0:01,0:02,0:04,0:07) painful 0.05 sec claps isolated and normalized -10 dB
tracking in CDwave as close as possible to alternate source (shnid=559) track timing
joined for seamless play on longer media
sector boundaries sbeok confirmed in shntool
Edits by Mike Hughey scarletfire1111-at-gmail.com

*alternate source: http://db.etree.org/shninfo_detail.php?shnid=559



    length     expanded size   cdr  WAVE problems filename
     2:33.680      29506604    cxx   --   ---xx   gd93-06-23_48k_d1t01.flac
     5:05.107      58580524    cxx   --   ---xx   gd93-06-23_48k_d1t02.flac
     7:36.520      87651884    cxx   --   ---xx   gd93-06-23_48k_d1t03.flac
     7:08.973      82362924    cxx   --   ---xx   gd93-06-23_48k_d1t04.flac
    10:08.893     116907564    cxx   --   ---xx   gd93-06-23_48k_d1t05.flac
     7:53.080      90831404    cxx   --   ---xx   gd93-06-23_48k_d1t06.flac
     6:12.053      71434284    cxx   --   ---xx   gd93-06-23_48k_d1t07.flac
     6:28.720      74634284    cxx   --   ---xx   gd93-06-23_48k_d1t08.flac
     2:52.640      33146924    cxx   --   ---xx   gd93-06-23_48k_d2t01.flac
     8:08.773      93844524    cxx   --   ---xx   gd93-06-23_48k_d2t02.flac
     6:22.213      73385004    cxx   --   ---xx   gd93-06-23_48k_d2t03.flac
     7:35.507      87457324    cxx   --   ---xx   gd93-06-23_48k_d2t04.flac
    12:15.493     141214764    cxx   --   ---xx   gd93-06-23_48k_d2t05.flac
    12:38.120     145559084    cxx   --   ---xx   gd93-06-23_48k_d2t06.flac
    12:51.093     148049964    cxx   --   ---xx   gd93-06-23_48k_d2t07.flac
    17:26.760     200977964    cxx   --   ---xx   gd93-06-23_48k_d3t01.flac
     6:52.280      79157804    cxx   --   ---xx   gd93-06-23_48k_d3t02.flac
     4:35.640      52922924    cxx   --   ---xx   gd93-06-23_48k_d3t03.flac
     9:17.013     106946604    cxx   --   ---xx   gd93-06-23_48k_d3t04.flac
     4:15.920      49136684    cxx   --   ---xx   gd93-06-23_48k_d3t05.flac
   158:18.480    1823709040 B                     (totals for 20 files, 0.5794 overall compression ratio)




a **GEMS** production   www.shnflac.net
May 2006
Show Checksums
ffp
gd93-06-23_48k_d1t01.flac:3afb7300f0eca968e034765eb18105a4
gd93-06-23_48k_d1t02.flac:9bf61bb717b5b5674b286f3ac01f553f
gd93-06-23_48k_d1t03.flac:76348ff59a3eac967985745920a2135d
gd93-06-23_48k_d1t04.flac:8272728199090cc891f04ba536299b3e
gd93-06-23_48k_d1t05.flac:0952c9aeb18980f701742dd7bb1d4441
gd93-06-23_48k_d1t06.flac:f99f0237a4c0444186c9ed622c947c4c
gd93-06-23_48k_d1t07.flac:2f7c1212bd0a8124c93e6cae99f029a3
gd93-06-23_48k_d1t08.flac:45f701e615b6f2c7eec206d8cc8a7387
gd93-06-23_48k_d2t01.flac:684a09cd1d867fe9f3d547e6a7057408
gd93-06-23_48k_d2t02.flac:f9928844b3c983bb54b721c14837fe94
gd93-06-23_48k_d2t03.flac:3889274ff613ae26ab1d4e1f282956ee
gd93-06-23_48k_d2t04.flac:50ec9d3a32a9509912509cdbbee00bbb
gd93-06-23_48k_d2t05.flac:d691ebb2d48ba92275e70d92b6d8dd45
gd93-06-23_48k_d2t06.flac:b07d97dc45e1cc003c7cce763724b79a
gd93-06-23_48k_d2t07.flac:1d09d615579273d657c993a264748a80
gd93-06-23_48k_d3t01.flac:0caaade9d11a237c063a2e231c0b82fb
gd93-06-23_48k_d3t02.flac:198c4b493e9ea963ea30d674f46984eb
gd93-06-23_48k_d3t03.flac:0c0eda713c2b835381edb6b2dd6f6af4
gd93-06-23_48k_d3t04.flac:989ac3eadafe4e29acaf53e83145ef78
gd93-06-23_48k_d3t05.flac:308db92ea857c3c20a6c5312aea63c1f
flac-md5
0f3199d57633aaa3df59a1cdab9250c8 *gd93-06-23_48k_d1t01.flac
7813d6f5faefa8052a38eda4df69322e *gd93-06-23_48k_d1t02.flac
06012831d3ccea872c3f3668f153b564 *gd93-06-23_48k_d1t03.flac
813da085be063c5ad45bfb8dd2b9619e *gd93-06-23_48k_d1t04.flac
9a8b200aa547e328292adf80508cdaf4 *gd93-06-23_48k_d1t05.flac
6ae04a48afc1756e3060650e77184fed *gd93-06-23_48k_d1t06.flac
9a74c6acde5360b3b5f450134cc9087f *gd93-06-23_48k_d1t07.flac
2bdb8040efe0d70428adb2203fa5a1dc *gd93-06-23_48k_d1t08.flac
ba5f127e06d84731767931bad59bffb4 *gd93-06-23_48k_d2t01.flac
c971f1868826266c503b2c6877ba7c78 *gd93-06-23_48k_d2t02.flac
c82b098082f3859582d8c0d139646a9c *gd93-06-23_48k_d2t03.flac
d1164df19bd42d9e7c5ac0d7068f846a *gd93-06-23_48k_d2t04.flac
ef475a2438bb241d2ef92fe36db11a72 *gd93-06-23_48k_d2t05.flac
8425e7a824988cd681451475fb6b2eb6 *gd93-06-23_48k_d2t06.flac
24fa5bac34b039b5c3b231166df1d7d7 *gd93-06-23_48k_d2t07.flac
ea4d11923546ffda55f9c6f06b1b1865 *gd93-06-23_48k_d3t01.flac
6c37ac7c141e4c1d8ed7ab228d7221f3 *gd93-06-23_48k_d3t02.flac
4faa08f545876cecb9d4ef3df6525896 *gd93-06-23_48k_d3t03.flac
d4f2fcefa70ef95d9fd4164b53692b0c *gd93-06-23_48k_d3t04.flac
5250fa1fa75a8306d06e4c08d599037a *gd93-06-23_48k_d3t05.flac

Comments
Add Comment
Other Sources (comments)
FOB AMS ST-250(cardioid) ->... (1) SBD: DAT> CD> SHN; Seeded... (2) flac16; Recording... (0) flac16/48kHz; Master... (0) flac16; Master... (0) flac16; Source:... (1)
Date User Comment