Browse Collections Artists Sources   Search Dates

Add Show    List Management    Help


Grateful Dead 10/16/89
Meadowlands Arena, East Rutherford, NJ
Comments Add Comment    Source Collectors    Add to Collection    Add to Want List    History
Source # 34658 Other Sources
Entered by dr.unclear
Checksums ffp , flac-md5
Disc Counts 1 / 1
Media Size
Date Circulated
Date Added
05/11/2006
05/11/2006
Source Summary flac16; Set 2 Only - FOB Schoeps CMC34 Cardiod>Panasonic SV250(?)>DAT > TASCAM DA-20 > M-Audio FireWire solo > Soundforge 8.0 wav @48K/16b (WinXP) > 44.1K/16b Audacity 1.2.3 (FC3)> Tracks cut with shntool 2.0.3 > Flac 1.1.2 compression level 8 on FC3 Linux 
  Archive
Source Information - Download Text | Download Zip
Grateful Dead
10-16-1989
Meadowlands Arena
East Rutherford, NJ
Set 2 only


Digital FOB Audience  
FOB Schoeps CMC34 Cardiod>Panasonic SV250(?)>DAT

Disc count:   1 flac / 1 audio

Set 2
Crowd/Tuning >            (1:26.37)
Dark Star >               (11:36.09)
Playin in the Band >      (8:03.03)
Uncle John's Band >       (9:31.43)
Playin in the Band >      (9:15.65)
Drums >                   (6:08.14)
Space >                   (6:14.40)
I Will Take You Home >    (4:23.48)
I Need A Miracle >        (4:03.13)
Dark Star >               (5:23.29)
Attics of my Life >       (4:47.06)
Playin in the Band        (3:31.68)
Crowd                     (1:42.33)
-Encore-
We Bid You Goodnight      (3:34.42)

Total Time:               (79:42.00)

DAT from collection of Todd Evans - [email protected]
DAT > TASCAM DA-20 > M-Audio FireWire solo > Soundforge 8.0 wav @48K/16b (WinXP)> 44.1K/16b Audacity 1.2.3 > Tracks cut with shntool 2.0.3 > Flac 1.1.2 compression level 8 on FC3 Linux by triportweek


shntool output:
    length     expanded size   cdr  WAVE problems filename
     1:26.37       15257468    ---   --   ---xx   gd89-10-16d2t01.flac
    11:36.09      122795612    ---   --   ---xx   gd89-10-16d2t02.flac
     8:03.03       85208300    ---   --   ---xx   gd89-10-16d2t03.flac
     9:31.43      100825580    ---   --   ---xx   gd89-10-16d2t04.flac
     9:15.65       98054924    ---   --   ---xx   gd89-10-16d2t05.flac
     6:08.14       64948172    ---   --   ---xx   gd89-10-16d2t06.flac
     6:14.40       66067724    ---   --   ---xx   gd89-10-16d2t07.flac
     4:23.48       46506140    ---   --   ---xx   gd89-10-16d2t08.flac
     4:03.13       42895820    ---   --   ---xx   gd89-10-16d2t09.flac
     5:23.29       57045452    ---   --   ---xx   gd89-10-16d2t10.flac
     4:47.06       50640956    ---   --   ---xx   gd89-10-16d2t11.flac
     3:31.68       37380380    ---   --   ---xx   gd89-10-16d2t12.flac
     1:42.33       18070460    ---   --   ---xx   gd89-10-16d2t13.flac
     3:34.42       37848428    ---   --   ---xx   gd89-10-16d2t14.flac
    79:42.00      843545416 B                     (totals for 14 files, 0.4513 overall compression ratio)


This is part of the Lossless Legs **GEMS** Project  
http://www.shnflac.net
May 2006

Show Checksums
ffp
gd89-10-16d2t01.flac:354c5768e4eba5dc91907b1431184c4b
gd89-10-16d2t02.flac:8b01e6a9c86135344cd4b458f1ca0c70
gd89-10-16d2t03.flac:0fc7eec23c369f9951b999a652ff3309
gd89-10-16d2t04.flac:ccb5c3684c2f34cfb2d9b8d2092c145c
gd89-10-16d2t05.flac:b36d170a28fc539f1a6ec04ab40eff4c
gd89-10-16d2t06.flac:43a057a0dcd2304fd6d0540ca6b8fd84
gd89-10-16d2t07.flac:914ab7c34854a754b2e8cfae7d0bafb5
gd89-10-16d2t08.flac:2ccd160799f7c7c8b1a9fab9aa5e2953
gd89-10-16d2t09.flac:7c0628d716d6902ced83cebb9ffc9081
gd89-10-16d2t10.flac:42305406a01644db0a9b201ed24a6c21
gd89-10-16d2t11.flac:525e0ab165c020c3850e7ab985b3d8ac
gd89-10-16d2t12.flac:e61fed6696951d6eadc8cb3dd84fbf8c
gd89-10-16d2t13.flac:ed468a652f8caec965c758f258000184
gd89-10-16d2t14.flac:79af0cb3810439b8e9806f49033b706f
flac-md5
7c680316db41a46c398a505a546906a9 *gd89-10-16d2t01.flac
252e9d4e40e66786859f5228f1b29611 *gd89-10-16d2t02.flac
bbbd28c02f617c25feca5af8ad3ef062 *gd89-10-16d2t03.flac
916a5addae24ba4502b484e8bf2ea560 *gd89-10-16d2t04.flac
cfcf2ba95d18167ea09f48df55b7fb71 *gd89-10-16d2t05.flac
63029dd7c763bd01e8ddc9734b82836c *gd89-10-16d2t06.flac
eb5197960ab99bfff946bfb8fbfa6a39 *gd89-10-16d2t07.flac
39d07d77e33527ac3c9d3249ae89e139 *gd89-10-16d2t08.flac
0207d37cb6b6e384db3af7f6a394a3cd *gd89-10-16d2t09.flac
d2bf1bd9ef026e0fbb4b50de5f3046e5 *gd89-10-16d2t10.flac
67ce62416e0c1a82b076a2edd3fe9da7 *gd89-10-16d2t11.flac
b8f57e3e08549c87258e1bf9bd49c68b *gd89-10-16d2t12.flac
935082bc6202e8908edd6c000805d5b6 *gd89-10-16d2t13.flac
566641796b5adb9bbbc8b68d32c37ac6 *gd89-10-16d2t14.flac

Comments
Add Comment
Other Sources (comments)
source update: DSBD> DAT>... (9) unknown audience recording... (0) flac16; matrix of... (0) flac16/48kHz;... (0) flac16; Source:... (0) flac16; Taper: M.... (0) flac24; Master... (0) flac16; Master... (0) flac24; Recording... (0) flac16; Recording... (0) flac16/48kHz; Source... (0)
Date User Comment
05/12/2006 triportweek I forgot to mention in the info file that there is some very loud feedback that was left unedited near the start of Miracle.