Browse Collections Artists Sources   Search Dates

Add Show    List Management    Help


Grateful Dead 05/??/80
Nassau Coliseum, Uniondale, NY
Comments Add Comment    Source Collectors    Add to Collection    Add to Want List    History
Source # 34685 Other Sources
Entered by Matt Vernon
Checksums flac-md5 , ffp
Disc Counts 1 / 1
Media Size
Date Circulated
Date Added
05/14/2006
05/16/2006
Source Summary flac16; FM broadcast > cassette (TDK SA-90) > Sony TC-D5M (no Dolby) > Soundblaster > Soundforge > CD-Wave > TLH (for SBE-OK, checksums and FLAC compression) > FLAC 
  Archive
Source Information - Download Text | Download Zip
Grateful Dead
"King Biscuit Flour Hour"
Nassau Coliseum, May 14-16, 1980

01 crowd
02 Alabama Getaway >
03 The Promised Land
04 Terrapin// (station break)
05 Playin' In The Band >
06 Uncle John's Band// (station break)
07 Feel Like A Stranger (tape flip)
08 Althea
09 Minglewood Blues
10 Brokedown Palace

Recording: FM broadcast > cassette (TDK SA-90).
Transfer: Cassette > Sony TC-D5M (no Dolby) > Soundblaster >
Soundforge > CD-Wave > TLH (for SBE-OK, checksums and FLAC
compression) > FLAC > bt.etree May 2006.

Soundforge was used to make fades and edits around the
station breaks, to correct the pitch, and to even-out the
levels. Thanks go to the creaky old TDK cassette tape that
is still playable after 25 years!


MD-5:

b860a950524280ed0f2ad0c3d034883c *gd1980-05-xx-kbfh-t01.flac
d661ea9fe2b7982eb3bbb061c024e49d *gd1980-05-xx-kbfh-t02.flac
ae33b862dbc1cc3b60ee009c0084199e *gd1980-05-xx-kbfh-t03.flac
b2b8db8222bc073cd65b0ed35735ac9b *gd1980-05-xx-kbfh-t04.flac
47440f5a8b045f095a7f4a57ecf1375b *gd1980-05-xx-kbfh-t05.flac
15769f3c840e6e7bafabc9a5f735110f *gd1980-05-xx-kbfh-t06.flac
60ac86cd1ca270b760b64262e0cc63e4 *gd1980-05-xx-kbfh-t07.flac
bac4d5c3d8fc9c5d464be07ccafd8618 *gd1980-05-xx-kbfh-t08.flac
2cad4a727aeb611462be08c4935f7b7f *gd1980-05-xx-kbfh-t09.flac
b714a41c51a0b3b12f0f057f921baf3a *gd1980-05-xx-kbfh-t10.flac

FFP:

gd1980-05-xx-kbfh-t01.flac:50fa6a0e250179b2cd59da2893c8b66a
gd1980-05-xx-kbfh-t02.flac:d03139b3ca13749019e880d86cdd6b69
gd1980-05-xx-kbfh-t03.flac:5fddd38aa05e574cd4cdd5cace180777
gd1980-05-xx-kbfh-t04.flac:c459c1e0e82457f132e21765aeb0da74
gd1980-05-xx-kbfh-t05.flac:2d0386770349743f4fbc7b7b88cdd4ec
gd1980-05-xx-kbfh-t06.flac:c4929a5acd98d4f4ff25b2dd0e9a7131
gd1980-05-xx-kbfh-t07.flac:e34556d55ae8fd328281b834f6bc1440
gd1980-05-xx-kbfh-t08.flac:5b0c13b8352181bebde0f162721cf364
gd1980-05-xx-kbfh-t09.flac:8a0a90adabe54a7e8abc93e9d5e483bc
gd1980-05-xx-kbfh-t10.flac:1b5710b21045de8743b9391ea85dfd10

SHNTOOL:

    length     expanded size   cdr  WAVE problems filename
     0:44.03        7768700    ---   --   ---xx   gd1980-05-xx-kbfh-t01.flac
     4:22.65       46369724    ---   --   ---xx   gd1980-05-xx-kbfh-t02.flac
     4:15.21       45031436    ---   --   ---xx   gd1980-05-xx-kbfh-t03.flac
    12:15.19      129698732    ---   --   ---xx   gd1980-05-xx-kbfh-t04.flac
     8:05.53       85678700    ---   --   ---xx   gd1980-05-xx-kbfh-t05.flac
     8:24.06       88919756    ---   --   ---xx   gd1980-05-xx-kbfh-t06.flac
     8:40.69       91890332    ---   --   ---xx   gd1980-05-xx-kbfh-t07.flac
     8:22.30       88623404    ---   --   ---xx   gd1980-05-xx-kbfh-t08.flac
     8:01.23       84902540    ---   --   ---xx   gd1980-05-xx-kbfh-t09.flac
     6:08.45       65021084    ---   --   ---xx   gd1980-05-xx-kbfh-t10.flac
    69:20.34      733904408 B                     (totals for 10 files, 0.6163 overall compression ratio)

There were no sector boundary errors.
Show Checksums
flac-md5
b860a950524280ed0f2ad0c3d034883c *gd1980-05-xx-kbfh-t01.flac
d661ea9fe2b7982eb3bbb061c024e49d *gd1980-05-xx-kbfh-t02.flac
ae33b862dbc1cc3b60ee009c0084199e *gd1980-05-xx-kbfh-t03.flac
b2b8db8222bc073cd65b0ed35735ac9b *gd1980-05-xx-kbfh-t04.flac
47440f5a8b045f095a7f4a57ecf1375b *gd1980-05-xx-kbfh-t05.flac
15769f3c840e6e7bafabc9a5f735110f *gd1980-05-xx-kbfh-t06.flac
60ac86cd1ca270b760b64262e0cc63e4 *gd1980-05-xx-kbfh-t07.flac
bac4d5c3d8fc9c5d464be07ccafd8618 *gd1980-05-xx-kbfh-t08.flac
2cad4a727aeb611462be08c4935f7b7f *gd1980-05-xx-kbfh-t09.flac
b714a41c51a0b3b12f0f057f921baf3a *gd1980-05-xx-kbfh-t10.flac
ffp
gd1980-05-xx-kbfh-t01.flac:50fa6a0e250179b2cd59da2893c8b66a
gd1980-05-xx-kbfh-t02.flac:d03139b3ca13749019e880d86cdd6b69
gd1980-05-xx-kbfh-t03.flac:5fddd38aa05e574cd4cdd5cace180777
gd1980-05-xx-kbfh-t04.flac:c459c1e0e82457f132e21765aeb0da74
gd1980-05-xx-kbfh-t05.flac:2d0386770349743f4fbc7b7b88cdd4ec
gd1980-05-xx-kbfh-t06.flac:c4929a5acd98d4f4ff25b2dd0e9a7131
gd1980-05-xx-kbfh-t07.flac:e34556d55ae8fd328281b834f6bc1440
gd1980-05-xx-kbfh-t08.flac:5b0c13b8352181bebde0f162721cf364
gd1980-05-xx-kbfh-t09.flac:8a0a90adabe54a7e8abc93e9d5e483bc
gd1980-05-xx-kbfh-t10.flac:1b5710b21045de8743b9391ea85dfd10

Comments
Add Comment
Date User Comment
05/16/2006 Andrew Long The following was posted on bt.etree to clarify the dates (personally, I can only confirm the 5/15):
Alabama Getaway > The Promised Land (5/14 or 5/16)
Terrapin > Playin' In The Band > Uncle John's Band (5/15)
Feel Like A Stranger > Althea (5/16)
Minglewood Blues (5/16)
Brokedown Palace (5/16)
03/13/2011 nfagdtrfb Here are the dates for each song. Note that nothing is from 05/14

Alabama Getaway ======= 05/16/80
The Promised Land ===== 05/16/80
Terrapin ============== 05/15/80
Playin' In The Band === 05/15/80
Uncle John's Band ===== 05/15/80
Feel Like A Stranger == 05/16/80
Althea ================ 05/16/80
Minglewood Blues ====== 05/16/80
Brokedown Palace ====== 05/16/80