Browse Collections Artists Sources   Search Dates

Add Show    List Management    Help


Grateful Dead 05/15/80
Nassau Coliseum, Uniondale, NY
Comments Add Comment    Source Collectors    Add to Collection    Add to Want List    History
Source # 34721 Other Sources
Entered by Matt Vernon
Checksums ffp , flac-md5
Disc Counts 2 / 2
Media Size
Date Circulated
Date Added
05/18/2006
05/18/2006
Source Summary flac16; AUD Source: AUD MC > DAT > CDR > EAC > Cool Edit 2K > CDWave > SHN FM Patches: FM > CASS > Sony TC-D5M (no Dolby) > Soundblaster > Soundforge > CD-Wave > TLH > FLAC Edit: SHN > WAV > WaveMerge > Sound Forge > CDWave > FLAC (level 8) 
  Archive
Source Information - Download Text | Download Zip
Grateful Dead
1980-05-15
Nassau Veterans Memorial Coliseum
Uniondale, NY

(2 discs FLAC / 2 discs AUDIO)

80min discs required

AUD Source: AUD MC > DAT > CDR > EAC > Cool Edit 2K > CDWave > SHN
FM Patches: FM > CASS > Sony TC-D5M (no Dolby) > Soundblaster > Soundforge > CD-Wave > TLH > FLAC
Edit: SHN > WAV > WaveMerge > Sound Forge > CDWave > FLAC (level 8)
            
SET1:
d1t01 Jack Straw >
d1t02 Franklin's Tower
d1t03 Cassidy
d1t04 They Love Each Other
d1t05 Lazy Lightning >
d1t06 Supplication
d1t07 Peggy-O
d1t08 Far From Me
d1t09 Feel Like A Stranger >
d1t10 Deal

SET2:
d1t11 //Althea
d2t01 Lost Sailor > (fades in)
d2t02 Saint Of Circumstance >
d2t03 Terrapin Station >
d2t04 Jam >
d2t05 Playing In The Band >
d2t06 Uncle John's Band >
d2t07 Drums >
d2t08 Space >
d2t09 Not Fade Away >
d2t10 Goin' Down The Road Feeling Bad >
d2t11 Good Lovin'
d2t12 Crowd
d2t13 Alabama Getaway

NOTES:
- AUD source shnid 12790 (Schlissel)
- FM Patches from shnid 34685
- Several minor glitches in TLO repaired with pencil tool
- Cuts in Terrapin and PITB patched from FM
- I decided to extend the patch in Terrapin for a few seconds beyond
  what was actually missing because it seemed more natural and a smoother
  listening experience; it gives the ears a little time to adjust before
  hitting them again...
- Droput in Drums repaired
- iZotope Ozone used to adjust the sound of the FM patches
- Discs are not seamless, no overlap to work with.
- Cut before Althea and Sailor are from the AUD source, no music
  is missing.
- iZoptope ozone was used to fill out the sound of this
  very nice aud.  
- Thanks to Alan Schlissel, SIRMIck (for tech support)
  and all who worked on these before...

Andrew Long May 18, 2006

SHNTOOL LEN:
    length     expanded size   cdr  WAVE problems filename
     6:05.63       64534220    ---   --   ---xx   gd1980-05-15d1t01.flac
    12:56.65      137039324    ---   --   ---xx   gd1980-05-15d1t02.flac
     5:10.26       54745196    ---   --   ---xx   gd1980-05-15d1t03.flac
     8:16.00       87494444    ---   --   ---xx   gd1980-05-15d1t04.flac
     3:46.40       39960524    ---   --   ---xx   gd1980-05-15d1t05.flac
     7:08.49       75614492    ---   --   ---xx   gd1980-05-15d1t06.flac
     8:23.02       88733948    ---   --   ---xx   gd1980-05-15d1t07.flac
     5:02.08       53291660    ---   --   ---xx   gd1980-05-15d1t08.flac
     9:02.62       95754668    ---   --   ---xx   gd1980-05-15d1t09.flac
     5:23.16       57014876    ---   --   ---xx   gd1980-05-15d1t10.flac
     8:07.08       85925660    ---   --   ---xx   gd1980-05-15d1t11.flac
     6:14.64       66124172    ---   --   ---xx   gd1980-05-15d2t01.flac
     6:15.11       66175916    ---   --   ---xx   gd1980-05-15d2t02.flac
    11:31.64      122042972    ---   --   ---xx   gd1980-05-15d2t03.flac
     1:09.73       12343340    ---   --   ---xx   gd1980-05-15d2t04.flac
     8:08.67       86240828    ---   --   ---xx   gd1980-05-15d2t05.flac
     8:39.49       91666892    ---   --   ---xx   gd1980-05-15d2t06.flac
     7:29.44       79307132    ---   --   ---xx   gd1980-05-15d2t07.flac
     2:15.36       23898716    ---   --   ---xx   gd1980-05-15d2t08.flac
     5:26.15       57541724    ---   --   ---xx   gd1980-05-15d2t09.flac
     6:54.02       73034348    ---   --   ---xx   gd1980-05-15d2t10.flac
     7:27.00       78850844    ---   --   ---xx   gd1980-05-15d2t11.flac
     2:31.47       26746988    ---   --   ---xx   gd1980-05-15d2t12.flac
     4:53.74       51859292    ---   --   ---xx   gd1980-05-15d2t13.flac
   158:20.60     1675942176 B (totals for 24 files, 0.5969 overall compression ratio)
  
FLAC FFP:
gd1980-05-15d1t01.flac:241540d4289f0d240bf3bba7b079b49b
gd1980-05-15d1t02.flac:b9314cd1e3733a147170861ac0cd1430
gd1980-05-15d1t03.flac:215fbed9ceb6ff1cdfeeaee10c57a4bc
gd1980-05-15d1t04.flac:472f609c9900e82bfcc223ef0760558e
gd1980-05-15d1t05.flac:9ef4e873cc9dddb61246f2cbdf4bf0fd
gd1980-05-15d1t06.flac:98f03592c9f43526b54083233ca4b0bc
gd1980-05-15d1t07.flac:921b95432420d92f07189dbb38252575
gd1980-05-15d1t08.flac:551deaa57c5ce69df10bc8dd6cd0e3c4
gd1980-05-15d1t09.flac:bae3913f7a657ab68097ca8d0b3b6e6c
gd1980-05-15d1t10.flac:e50591c024927a2f7187e5c00cbe9e07
gd1980-05-15d1t11.flac:0af7dbeb0514a92e1e9265420244e78b
gd1980-05-15d2t01.flac:b93697c3ceea0435ff86f33f41e04739
gd1980-05-15d2t02.flac:2de02e6e85de2f321e9082fba80e1534
gd1980-05-15d2t03.flac:c1d9198384d2d4a731e717511670cc93
gd1980-05-15d2t04.flac:287b621782375b075d49f09745c629ba
gd1980-05-15d2t05.flac:691f52695e28daccc6443ee12262fc6d
gd1980-05-15d2t06.flac:4950412afe00b17efa73fb358c3dc940
gd1980-05-15d2t07.flac:df6c8b4c9c75909243e682c36643a2dc
gd1980-05-15d2t08.flac:a49cb00fcebf0169a7615a5d43c18160
gd1980-05-15d2t09.flac:3cba383cc283a173e5a6b9426faef6e4
gd1980-05-15d2t10.flac:d10556314202fb6387d8196af47c620f
gd1980-05-15d2t11.flac:7031a506f336023c8f38af3cdd9fd22c
gd1980-05-15d2t12.flac:3fa5b1beba7b1d7ee3c30e93f92de00d
gd1980-05-15d2t13.flac:c67a4f6a1f16777cc2f6c6e83b471294
Show Checksums
ffp
gd1980-05-15d1t01.flac:241540d4289f0d240bf3bba7b079b49b
gd1980-05-15d1t02.flac:b9314cd1e3733a147170861ac0cd1430
gd1980-05-15d1t03.flac:215fbed9ceb6ff1cdfeeaee10c57a4bc
gd1980-05-15d1t04.flac:472f609c9900e82bfcc223ef0760558e
gd1980-05-15d1t05.flac:9ef4e873cc9dddb61246f2cbdf4bf0fd
gd1980-05-15d1t06.flac:98f03592c9f43526b54083233ca4b0bc
gd1980-05-15d1t07.flac:921b95432420d92f07189dbb38252575
gd1980-05-15d1t08.flac:551deaa57c5ce69df10bc8dd6cd0e3c4
gd1980-05-15d1t09.flac:bae3913f7a657ab68097ca8d0b3b6e6c
gd1980-05-15d1t10.flac:e50591c024927a2f7187e5c00cbe9e07
gd1980-05-15d1t11.flac:0af7dbeb0514a92e1e9265420244e78b
gd1980-05-15d2t01.flac:b93697c3ceea0435ff86f33f41e04739
gd1980-05-15d2t02.flac:2de02e6e85de2f321e9082fba80e1534
gd1980-05-15d2t03.flac:c1d9198384d2d4a731e717511670cc93
gd1980-05-15d2t04.flac:287b621782375b075d49f09745c629ba
gd1980-05-15d2t05.flac:691f52695e28daccc6443ee12262fc6d
gd1980-05-15d2t06.flac:4950412afe00b17efa73fb358c3dc940
gd1980-05-15d2t07.flac:df6c8b4c9c75909243e682c36643a2dc
gd1980-05-15d2t08.flac:a49cb00fcebf0169a7615a5d43c18160
gd1980-05-15d2t09.flac:3cba383cc283a173e5a6b9426faef6e4
gd1980-05-15d2t10.flac:d10556314202fb6387d8196af47c620f
gd1980-05-15d2t11.flac:7031a506f336023c8f38af3cdd9fd22c
gd1980-05-15d2t12.flac:3fa5b1beba7b1d7ee3c30e93f92de00d
gd1980-05-15d2t13.flac:c67a4f6a1f16777cc2f6c6e83b471294
flac-md5
eb7ced159e5930acb0a9e2a68f7ac415 *gd1980-05-15d1t01.flac
b5042ab3b228b83917bb45a6a3c8a5d7 *gd1980-05-15d1t02.flac
d15d85b3d4db11882f2e9c5c27a182e6 *gd1980-05-15d1t03.flac
de5850998c69eef34b28294aa1c9cfab *gd1980-05-15d1t04.flac
43a8c30c82a967e965e72a134082ecd4 *gd1980-05-15d1t05.flac
94a3964cb619025a519025e325b6da52 *gd1980-05-15d1t06.flac
adfdfa22b47bcb06708defcfb0e22fa6 *gd1980-05-15d1t07.flac
e5838a8e9785d84f0277a1cecda44dfd *gd1980-05-15d1t08.flac
bcc174184f1baca77e853c8766c7a3a8 *gd1980-05-15d1t09.flac
7f85234adf70327685f8f8764432ffaf *gd1980-05-15d1t10.flac
303a73641c4c109b80a57e9d601b1f9d *gd1980-05-15d1t11.flac
4fd06de947cf4e117d07c29859a0f17a *gd1980-05-15d2t01.flac
3921896f8976b7d7cf5a115d33eb678f *gd1980-05-15d2t02.flac
7155536be87a13ba87c423a8d19a95df *gd1980-05-15d2t03.flac
6199ac8f36dc24bd128863678b8c1efd *gd1980-05-15d2t04.flac
82772207c182647b0f8c569ba7bd40ab *gd1980-05-15d2t05.flac
17840a57f5009b6c71e91b239c483184 *gd1980-05-15d2t06.flac
fb56c32dd7ea9b8b52bc552d11e69d38 *gd1980-05-15d2t07.flac
018f889814effd4dc3f5910ef348694a *gd1980-05-15d2t08.flac
b86e692012e9f41cc010227d8ad8c279 *gd1980-05-15d2t09.flac
9f3cdd9e34f2cb7f123e4750542d4e8b *gd1980-05-15d2t10.flac
1c35347785b38efd781c4805cb9f4a05 *gd1980-05-15d2t11.flac
0658eea7df07dae8586e8507d7c9bb18 *gd1980-05-15d2t12.flac
98141f85811aea4275716fbd31ede8f2 *gd1980-05-15d2t13.flac

Comments
Add Comment
Other Sources (comments)
AUD> MC> DAT> CDR; via Alan... (0) flac16; Recording... (0) flac16;Analog... (0) flac24;Analog... (1) flac24; Recording by... (0) flac16; 2 Source... (0)
Date User Comment