Browse Collections Artists Sources   Search Dates

Add Show    List Management    Help


Grateful Dead 06/16/91
Giants Stadium, East Rutherford, NJ
Comments Add Comment    Source Collectors    Add to Collection    Add to Want List    History
Source # 34783 Other Sources
Entered by Matt Vernon
Checksums ffp , orig-flac-replaygain-md5 , flac-md5
Disc Counts 2 / 3
Media Size
Date Circulated
Date Added
05/25/2006
05/25/2006
Source Summary flac16; DSBD>DAT>WAV>CD>EAC>SHN>WAV>FLAC - Seamless fix of shn id 17028. Note Added 11/9/08: Reflac version w/o replay gain added. See info file for details 
  Archive
Source Information - Download Text | Download Zip
Grateful Dead
June 16, 1991
Giants Stadium; East Rutherford, NJ

------------------------------------------------------------------------
Fix of shnid 17028

I made the transition between CDs 2 and 3 seamless and converted the
non-seekable shns to FLAC.

Bill Tetzeli ([email protected])
3/30/2006
------------------------------------------------------------------------
When this source was first circulated, the flac files contained
REPLAYGAIN tags. The wav files compressed inside the flac files are
fine, but if you listen to the flac files themselves using a player
like WinAMP, these tags cause all the tracks to be played at the same
volume. That's not good for concerts where some tracks are supposed to
be louder than others.

There's a new version of this source available. It has exactly the
same wav files; it's just the flac wrapper that's different, the
wrapper doesn't have REPLAYGAIN set anymore. The new version has the
same ffp file (since the wav's are the same), but a new md5 file
(since the flac files are different). The md5 file for the old source
is called "orig-flac-replaygain-md5"; the md5 file for the good new
source is called "flac-md5". If you have a source for this that
matches the ffp, you can create the new source by unflac'ing the old
source and then recompressing at flac level 8 using the flac command
line tool or the flac frontend.

From now on, only the new version of the source should be circulated.

SteveSw - Nov, 2008
------------------------------------------------------------------------

Source: DSBD->DAT->Tascam DA-30mkII-> AES-EBU bus-> RME Intelligent 24/96 PAD->
Cool Edit Pro (direct - no edit)-> CDRWin-> Plextor Internal SCSI 12/10/32S

Transfer: Re-ripped on Plextor Internal SCSI Ultraplex 40 MAX using EAC (secure
mode w/accurate stream)-> mkwACT v.97-> SHN by GJF

Disc 1
01. Picasso Moon
02. Bertha
03. Little Red Rooster
04. Candyman
05. Memphis Blues
06. Stagger Lee
07. Let It Grow

Disc 2
01. Jack Straw->
02. Crazy Fingers->
03. China Cat->
04. Rider->
05. Drums->
06. Jam->

Disc 3
01. Jam->
02. Miracle->
03. Black Peter->
04. Throwing Stones->
05. Not Fade Away
06. E: Box Of Rain

==========

    length     expanded size    cdr  WAVE problems  fmt   ratio  filename
     6:45.59       71580812 B   ---   --   ---xx   flac  0.5587  gd1991-06-16d1t01.flac
     7:39.48       81080540 B   ---   --   ---xx   flac  0.5450  gd1991-06-16d1t02.flac
    10:45.13      113808620 B   ---   --   ---xx   flac  0.5042  gd1991-06-16d1t03.flac
     7:49.56       82863356 B   ---   --   ---xx   flac  0.5022  gd1991-06-16d1t04.flac
     9:22.61       99280316 B   ---   --   ---xx   flac  0.5228  gd1991-06-16d1t05.flac
     7:48.01       82557596 B   ---   --   ---xx   flac  0.5345  gd1991-06-16d1t06.flac
    12:21.34      130792412 B   ---   --   ---xx   flac  0.5299  gd1991-06-16d1t07.flac
     7:06.22       75198188 B   ---   --   ---xx   flac  0.5489  gd1991-06-16d2t01.flac
     8:26.62       89404268 B   ---   --   ---xx   flac  0.5253  gd1991-06-16d2t02.flac
     7:03.69       74779532 B   ---   --   ---xx   flac  0.5536  gd1991-06-16d2t03.flac
     5:48.05       61399004 B   ---   --   ---xx   flac  0.5611  gd1991-06-16d2t04.flac
    12:02.49      127476092 B   ---   --   ---xx   flac  0.4617  gd1991-06-16d2t05.flac
     6:02.34       63936812 B   ---   --   ---xx   flac  0.4211  gd1991-06-16d2t06.flac
     7:06.40       75240524 B   ---   --   ---xx   flac  0.4865  gd1991-06-16d3t01.flac
     6:28.69       68605532 B   ---   --   ---xx   flac  0.5323  gd1991-06-16d3t02.flac
    11:45.66      124517276 B   ---   --   ---xx   flac  0.4985  gd1991-06-16d3t03.flac
     9:08.05       96679004 B   ---   --   ---xx   flac  0.5229  gd1991-06-16d3t04.flac
     7:43.58       81809660 B   ---   --   ---xx   flac  0.5085  gd1991-06-16d3t05.flac
     4:50.38       51245420 B   ---   --   ---xx   flac  0.5227  gd1991-06-16d3t06.flac
   156:06.39     1652254964 B                            0.5160  (19 files)
Show Checksums
ffp
gd1991-06-16d1t01.flac:bb2277f33b872611ed2a8f07b0086441
gd1991-06-16d1t02.flac:accfb894560bc8ed6ab3c7e2aed70be1
gd1991-06-16d1t03.flac:a88cde2c9768ec11ac2abd575461e8e4
gd1991-06-16d1t04.flac:ed1272adf362a3efec6d73eac08f8b2c
gd1991-06-16d1t05.flac:cc6eab74b1eb25894182e583d97f1b91
gd1991-06-16d1t06.flac:53537f8608116be68c84b8b941320a16
gd1991-06-16d1t07.flac:ecb2fed8a1728668208b078603b90526
gd1991-06-16d2t01.flac:608525f899ff6bf185b9984d897ca850
gd1991-06-16d2t02.flac:d931a45b2941a50ddaf7d8e400b4c166
gd1991-06-16d2t03.flac:9c6220bfa58719725de0f52f44836384
gd1991-06-16d2t04.flac:64e1e5a29fc1336874362b44225c03ce
gd1991-06-16d2t05.flac:e8fe8075720aea548797cc435c452e10
gd1991-06-16d2t06.flac:f8d972f7eca3d089a475de3f9cf5bd98
gd1991-06-16d3t01.flac:6d1e3dc6cc23cbded59bb369ab3baa4f
gd1991-06-16d3t02.flac:2175019ac8b27a1b9a32d351a9d5b53a
gd1991-06-16d3t03.flac:cd74f90853870511ee76f98bee43fdf4
gd1991-06-16d3t04.flac:75bed3edc0a086224b7bce3cf88b3c25
gd1991-06-16d3t05.flac:65524df1505bff7a610a7096f10b6bda
gd1991-06-16d3t06.flac:2d06fc5d05e287b9e70624349dbf918f
orig-flac-replaygain-md5
8bcbc6317f1aa67a6d2db08bb70378bd *gd1991-06-16d1t01.flac
32e5decab70d746dff88d394b3187f9f *gd1991-06-16d1t02.flac
d1bec62945a18881783241c2df407760 *gd1991-06-16d1t03.flac
583c71e472d3e9c587994d64740759d7 *gd1991-06-16d1t04.flac
6817b623b2cd56c32b8a39e8d8de1c87 *gd1991-06-16d1t05.flac
35bfdc6d38226a55a30216d62c526152 *gd1991-06-16d1t06.flac
1fce27b3ff8f755c38e88e8bb6b66592 *gd1991-06-16d1t07.flac
6915b011d66d253c41a21bbdb2ebe807 *gd1991-06-16d2t01.flac
2b045b7b5178aef1a00d64be90e76837 *gd1991-06-16d2t02.flac
9951cce278248137fbc0ebc2d050e0b4 *gd1991-06-16d2t03.flac
d46abeb74de69f39dd61128ac594b55c *gd1991-06-16d2t04.flac
7be5817bc399d8092dc8e7020d74602b *gd1991-06-16d2t05.flac
49341dfe6abc4a481d8a3ecf00b3a6fe *gd1991-06-16d2t06.flac
c0e61208fcff66322c1ce1ccc91976a6 *gd1991-06-16d3t01.flac
675c39863332ecca28a1b45edaaded4c *gd1991-06-16d3t02.flac
415d51d889d638f4b088b9bc2bb8d106 *gd1991-06-16d3t03.flac
d6bd3d866d10c348b347471fddc75152 *gd1991-06-16d3t04.flac
e3359987af1641278bcbbc740e533f83 *gd1991-06-16d3t05.flac
a981dae6136794bf33154489c1b57921 *gd1991-06-16d3t06.flac
flac-md5
e3f68326bcbf2563419124caa99b8232 *gd1991-06-16d1t01.flac
858ff299e2e44002a6f4e819cf4ca860 *gd1991-06-16d1t02.flac
6d31a7021da8f1bfff1ab8748022be50 *gd1991-06-16d1t03.flac
a2c6a00a2b6931d6a051b35d65a7b651 *gd1991-06-16d1t04.flac
1f348c04dd5dd70a10080c31516f158e *gd1991-06-16d1t05.flac
765959482db89642d69399d7cf0c4bc3 *gd1991-06-16d1t06.flac
26936d418bc78347736773fb5860860b *gd1991-06-16d1t07.flac
4d73eeb9c7d043cbe486a19d82c7c6fd *gd1991-06-16d2t01.flac
9062a8271bd322080085dc2e9aeafdf8 *gd1991-06-16d2t02.flac
d6e84ca736379dc5588610bea648a2fd *gd1991-06-16d2t03.flac
ecc766fd835ddff8467de8b91c0de78e *gd1991-06-16d2t04.flac
664d03b7438555ddf8131111b83dba3d *gd1991-06-16d2t05.flac
887405939d3f35d047925b6b4e3e4a94 *gd1991-06-16d2t06.flac
693043741d7b242f29275cebb38bfb42 *gd1991-06-16d3t01.flac
d3ec96954a115df4b35433cf247e8397 *gd1991-06-16d3t02.flac
b595122e9083c23c84c6a7f479674e0a *gd1991-06-16d3t03.flac
4874510207bf08c85d18b28b975276ff *gd1991-06-16d3t04.flac
1167680d9355859c694b41e7b0b2bad1 *gd1991-06-16d3t05.flac
fc4a753a0e931f72a31c5a66c259beb6 *gd1991-06-16d3t06.flac

Comments
Add Comment
Other Sources (comments)
SBD > ? > DAT > CDR > WAV... (0) Source: DSBD (DAT)-> Tascam... (0) flac16; Master... (0) flac24; Master... (0) flac16; Master... (0) flac16; 2 Source... (0) flac16; Source: B&K... (0) flac16; (original... (0) flac16; (original... (0) flac16; Matrix 2... (0) DTS-Audio-CD 5.1... (0) flac16/48kHz; 5.1... (0) flac16; DSDB>clone... (0)
Date User Comment
11/09/2006 btet This was inadvertently FLAC encoded with replaygain. If you're playing the FLACs in Winamp you should reFLAC the files without the replaygain option. If you're burning extracted .wavs to CD, these are unaffected and no reFLACing is necessary. I apologize for the error.
05/30/2016 kevtobin set 2 is not seemless - missing a chunk out of drums