Browse Collections Artists Sources   Search Dates

Add Show    List Management    Help


Grateful Dead 07/26/72
Paramount Theater, Portland, OR
Comments Add Comment    Source Collectors    Add to Collection    Add to Want List    History
Source # 34803 Other Sources
Entered by Matt Vernon
Checksums ffp , flac-md5
Disc Counts 2 / 4
Media Size
Date Circulated
Date Added
05/29/2006
05/28/2006
Source Summary flac16; MR > PCM > DAT > CD > EAC > SHN with patches from MSR > DAT > ZA2 > CDR x2; Fix of shn id 8957 by Andrew Long 
  Archive
Source Information - Download Text | Download Zip
Grateful Dead
1972-07-26
Paramount Theatre
Portland, OR

(2 discs flac / 4 discs audio)

Source: MR > PCM > DAT > CD > EAC > SHN
Patch Source: Master Soundboard Reel > DAT > ZA2 > CDR x2

Edits: SHN > WAV > Sound Forge > CDWave > FLAC (level 8)

Set 1:
d1t01 - Tuning
d1t02 - Cold Rain And Snow
d1t03 - Black Throated Wind
d1t04 - Mississippi Half-Step
d1t05 - Mexicali Blues
d1t06 - Sugaree
d1t07 - El Paso
d1t08 - China Cat Sunflower >
d1t09 - I Know You Rider
d1t10 - Jack Straw
d2t01 - Tennessee Jed
d2t02 - Playing In The Band
d2t03 - Casey Jones

Set 2:
d2t04 - The Promised Land
d2t05 - He's Gone
d2t06 - Me And My Uncle
d2t07 - You Win Again
d2t08 - Greatest Story Ever Told
d2t09 - Ramble On Rose
d3t01 - Dark Star >
d3t02 - Comes A Time
d3t03 - Sugar Magnolia
d3t04 - Brown Eyed Women
d3t05 - Beat It On Down The Line
d3t06 - Stella Blue
d4t01 - Not Fade Away >
d4t02 - Goin' Down The Road Feeling Bad >
d4t03 - Not Fade Away
Encore:
d4t04 - One More Saturday Night

NOTES:
- Primary source shnid 8957
- Patch source (sbd) shnid 1411
- Greatest Story patched from alternate sbd source. The patch was adjusted
  with iZotope Ozone to brighten it up and better match the primary source.
- Several sub-second dropouts @ 12:38 in Dark Star repaired.
- The disc breaks were made seamless.
- He's Gone was already patched from (I believe) the same alt. source used to
  patch GSET.
- Dark Star has been left intact, tracked as a single cut. In the previous seed,
  there was a "Drums" track which was really a brief Drums followed by Phil/Drums
  and then an extended jam before the return to the theme. Dark Star breaks down
  like this:
- Thanks to Charlie Miller for his comment under shnid 8957 which suggested
  this fix.
- The only way to get this onto 3 audio discs would have been to cut out much of the
  tuning and banter, which is often entertaining. Jerry says to Weir before BTW, "You
  gonna bullshit all night or play..."
- Put the kids to bed and enjoy this fine show.

Andrew Long May 27, 2006

SHNTOOL LEN:
    length     expanded size   cdr  WAVE problems filename
     1:55.69       20448332    ---   --   ---xx   gd1972-07-26d1t01.flac
     7:36.33       80516060    ---   --   ---xx   gd1972-07-26d1t02.flac
     7:26.43       78775580    ---   --   ---xx   gd1972-07-26d1t03.flac
     8:44.44       92537132    ---   --   ---xx   gd1972-07-26d1t04.flac
     5:07.47       54265388    ---   --   ---xx   gd1972-07-26d1t05.flac
     9:06.66       96469676    ---   --   ---xx   gd1972-07-26d1t06.flac
     6:30.07       68812508    ---   --   ---xx   gd1972-07-26d1t07.flac
     6:35.51       69797996    ---   --   ---xx   gd1972-07-26d1t08.flac
     8:05.44       85657532    ---   --   ---xx   gd1972-07-26d1t09.flac
     9:05.63       96286220    ---   --   ---xx   gd1972-07-26d1t10.flac
    10:21.03      109551500    ---   --   ---xx   gd1972-07-26d2t01.flac
    15:10.31      160596956    ---   --   ---xx   gd1972-07-26d2t02.flac
     5:41.64       60302972    ---   --   ---xx   gd1972-07-26d2t03.flac
     3:32.67       37554428    ---   --   ---xx   gd1972-07-26d2t04.flac
    11:18.10      119622764    ---   --   ---xx   gd1972-07-26d2t05.flac
     4:12.48       44565740    ---   --   ---xx   gd1972-07-26d2t06.flac
     5:16.68       55902380    ---   --   ---xx   gd1972-07-26d2t07.flac
     5:53.74       62443292    ---   --   ---xx   gd1972-07-26d2t08.flac
     7:45.25       82084844    ---   --   ---xx   gd1972-07-26d2t09.flac
    30:49.30      326234204    ---   --   ---xx   gd1972-07-26d3t01.flac
     8:32.45       90422684    ---   --   ---xx   gd1972-07-26d3t02.flac
    10:00.43      105941180    ---   --   ---xx   gd1972-07-26d3t03.flac
     5:20.61       56591516    ---   --   ---xx   gd1972-07-26d3t04.flac
     3:25.01       36164396    ---   --   ---xx   gd1972-07-26d3t05.flac
     9:42.33      102742460    ---   --   ---xx   gd1972-07-26d3t06.flac
     5:12.71       55203836    ---   --   ---xx   gd1972-07-26d4t01.flac
     8:22.09       88574012    ---   --   ---xx   gd1972-07-26d4t02.flac
     4:39.22       49267388    ---   --   ---xx   gd1972-07-26d4t03.flac
     4:47.44       50730332    ---   --   ---xx   gd1972-07-26d4t04.flac
   230:21.16     2438063308 B  (totals for 29 files, 0.5591 overall compression ratio)


FLAC FFP:
gd1972-07-26d1t01.flac:e720c39393ec94f35afa66d756c56de2
gd1972-07-26d1t02.flac:714d09f584d88b6c0128c7ed98575cd8
gd1972-07-26d1t03.flac:40e33aaffa5d3afd611b56cf87a9bf1c
gd1972-07-26d1t04.flac:240ce6aaf3f307156be29641c8e7f59e
gd1972-07-26d1t05.flac:e674e5dcb5c8e87097fbc474734be418
gd1972-07-26d1t06.flac:f81a49672b2975fac51269ee21ca285d
gd1972-07-26d1t07.flac:0fe2ec2c09ecaba23052d4fbc98799a6
gd1972-07-26d1t08.flac:5b5b0b17209fedf08439603132d044dd
gd1972-07-26d1t09.flac:45319319eb3b287fbda22fb124f4975c
gd1972-07-26d1t10.flac:54ae59ee23bf8073527a2b518f6d1bdb
gd1972-07-26d2t01.flac:5831d53b065a6b04d75d165bd7acd89a
gd1972-07-26d2t02.flac:7516c8874d58ff7f0f0ead50c2f6e547
gd1972-07-26d2t03.flac:df838c9667dc792a4045549b146ca476
gd1972-07-26d2t04.flac:1db23c16166c16f815df376a8e071465
gd1972-07-26d2t05.flac:d6b38e87ddaf890b83717fb70e4224a4
gd1972-07-26d2t06.flac:92eb16138e39c1d8533536f0d80b9124
gd1972-07-26d2t07.flac:08c2091451ed452d98ade2325f3d75cb
gd1972-07-26d2t08.flac:23536036444c5ebb744cf32d7135b891
gd1972-07-26d2t09.flac:70be67e75839ed47238faf5a729a2397
gd1972-07-26d3t01.flac:4ad4534e9a7a5a99f31028b53d83d96c
gd1972-07-26d3t02.flac:e50ca1c38612c0452160d33fa82264d9
gd1972-07-26d3t03.flac:4d626f3132dbf6b9032b64fdd31aeb06
gd1972-07-26d3t04.flac:877975387411108f6d1c3c5bf75c90dd
gd1972-07-26d3t05.flac:2790d42673f1e337a6c6d8359a05f7cb
gd1972-07-26d3t06.flac:f8e079408c2055accd49217a21a92bb0
gd1972-07-26d4t01.flac:5f7200e8035c685a060683e346ce1758
gd1972-07-26d4t02.flac:a32c94f46f09796cd9afa645f8e9124a
gd1972-07-26d4t03.flac:3a34349b485bcacf1530349f48c53228
gd1972-07-26d4t04.flac:1972ede79c87d625398a16d7c771e573
Show Checksums
ffp
gd1972-07-26d1t01.flac:e720c39393ec94f35afa66d756c56de2
gd1972-07-26d1t02.flac:714d09f584d88b6c0128c7ed98575cd8
gd1972-07-26d1t03.flac:40e33aaffa5d3afd611b56cf87a9bf1c
gd1972-07-26d1t04.flac:240ce6aaf3f307156be29641c8e7f59e
gd1972-07-26d1t05.flac:e674e5dcb5c8e87097fbc474734be418
gd1972-07-26d1t06.flac:f81a49672b2975fac51269ee21ca285d
gd1972-07-26d1t07.flac:0fe2ec2c09ecaba23052d4fbc98799a6
gd1972-07-26d1t08.flac:5b5b0b17209fedf08439603132d044dd
gd1972-07-26d1t09.flac:45319319eb3b287fbda22fb124f4975c
gd1972-07-26d1t10.flac:54ae59ee23bf8073527a2b518f6d1bdb
gd1972-07-26d2t01.flac:5831d53b065a6b04d75d165bd7acd89a
gd1972-07-26d2t02.flac:7516c8874d58ff7f0f0ead50c2f6e547
gd1972-07-26d2t03.flac:df838c9667dc792a4045549b146ca476
gd1972-07-26d2t04.flac:1db23c16166c16f815df376a8e071465
gd1972-07-26d2t05.flac:d6b38e87ddaf890b83717fb70e4224a4
gd1972-07-26d2t06.flac:92eb16138e39c1d8533536f0d80b9124
gd1972-07-26d2t07.flac:08c2091451ed452d98ade2325f3d75cb
gd1972-07-26d2t08.flac:23536036444c5ebb744cf32d7135b891
gd1972-07-26d2t09.flac:70be67e75839ed47238faf5a729a2397
gd1972-07-26d3t01.flac:4ad4534e9a7a5a99f31028b53d83d96c
gd1972-07-26d3t02.flac:e50ca1c38612c0452160d33fa82264d9
gd1972-07-26d3t03.flac:4d626f3132dbf6b9032b64fdd31aeb06
gd1972-07-26d3t04.flac:877975387411108f6d1c3c5bf75c90dd
gd1972-07-26d3t05.flac:2790d42673f1e337a6c6d8359a05f7cb
gd1972-07-26d3t06.flac:f8e079408c2055accd49217a21a92bb0
gd1972-07-26d4t01.flac:5f7200e8035c685a060683e346ce1758
gd1972-07-26d4t02.flac:a32c94f46f09796cd9afa645f8e9124a
gd1972-07-26d4t03.flac:3a34349b485bcacf1530349f48c53228
gd1972-07-26d4t04.flac:1972ede79c87d625398a16d7c771e573
flac-md5
6d454c0347ea286e0615aba7635c978c *gd1972-07-26d1t01.flac
d42d3b2f727246fe2d5708159454e3e7 *gd1972-07-26d1t02.flac
cb45715734b8e587ded6fb908fc6b9c3 *gd1972-07-26d1t03.flac
488bd49a487a7cd7b121d685f516b470 *gd1972-07-26d1t04.flac
e83191bff05583d839e279441c874c35 *gd1972-07-26d1t05.flac
9ce963e66fdb39cb91b9d4f7be3ead2e *gd1972-07-26d1t06.flac
11162dc7a8c0b38708b64e7a0cd2ddd0 *gd1972-07-26d1t07.flac
af7a06836d96c39016779f98919abfcf *gd1972-07-26d1t08.flac
241f5723eb2db5ca06f7ec519289258c *gd1972-07-26d1t09.flac
0614b0669803aed2c720d0654be822ed *gd1972-07-26d1t10.flac
fde9c6b8c089b04b9acfb6e071949532 *gd1972-07-26d2t01.flac
05deb6ccfa55dcc08837963b0eb0b467 *gd1972-07-26d2t02.flac
e219703d0c72c5b1254b73544917f8e3 *gd1972-07-26d2t03.flac
67a5b817e0d5b57dc7b03a15b723d4ef *gd1972-07-26d2t04.flac
2de064a53debbb8deb64fc9ffebbda51 *gd1972-07-26d2t05.flac
69c6c552057404ec72525a1f561254bc *gd1972-07-26d2t06.flac
ac1aacb4f0f0d2a94550f9b64c74c3dd *gd1972-07-26d2t07.flac
74414260b7162547c521a044544cb989 *gd1972-07-26d2t08.flac
3f7e6cf2bc139e64fc7866e4bc6a443e *gd1972-07-26d2t09.flac
bf37baad8bfe15644ddb643b6086c336 *gd1972-07-26d3t01.flac
44c62c5844488fa0154e3d6a5535d9bb *gd1972-07-26d3t02.flac
7443839f1fef8fb79dc89cb974d5435e *gd1972-07-26d3t03.flac
9397008439f1cbe7192648e4d733e288 *gd1972-07-26d3t04.flac
d3e57b6336ddd5de9e675b20b6f7ef98 *gd1972-07-26d3t05.flac
4fc4aec6c8f6270cff0236b573e0e98f *gd1972-07-26d3t06.flac
14308c9e38adc16129e61aff78cc81ed *gd1972-07-26d4t01.flac
04078638d010559bf42fa5fc6e0cbf52 *gd1972-07-26d4t02.flac
6572d54c6d95cc6eecd49b085ea3a986 *gd1972-07-26d4t03.flac
38c7df537163c3a002ff2bbc1f3cebda *gd1972-07-26d4t04.flac

Comments
Add Comment
Other Sources (comments)
nearly complete; updated... (2) Variation of original (4) flac16; Lineage:... (0)
Date User Comment