Browse Collections Artists Sources   Search Dates

Add Show    List Management    Help


Grateful Dead 03/31/94
The Omni, Atlanta, GA
Comments Add Comment    Source Collectors    Add to Collection    Add to Want List    History
Source # 34841 Other Sources
Entered by Matt Vernon
Checksums ffp , orig-flac-replaygain-md5 , flac-md5
Disc Counts 2 / 3
Media Size
Date Circulated
Date Added
05/31/2006
05/31/2006
Source Summary flac16; Seamless fix of shn id 10930. Note Added 11/9/08: Reflac version w/o replay gain added. See info file for details 
  Archive
Source Information - Download Text | Download Zip
Grateful Dead
The Omni
Atlanta, GA.
March 31st, 1994
------------------------------------------------------------------------
Fix of shnid 10930

I made the transition between CDs 2 and 3 seamless (there was overlap)
and split drums and space into two tracks.  I also converted the
non-seekable SHNs to FLAC and fixed and checked the resulting SBEs
using shntool.

Bill Tetzeli ([email protected])
4/1/2006
------------------------------------------------------------------------
When this source was first circulated, the flac files contained
REPLAYGAIN tags. The wav files compressed inside the flac files are
fine, but if you listen to the flac files themselves using a player
like WinAMP, these tags cause all the tracks to be played at the same
volume. That's not good for concerts where some tracks are supposed to
be louder than others.

There's a new version of this source available. It has exactly the
same wav files; it's just the flac wrapper that's different, the
wrapper doesn't have REPLAYGAIN set anymore. The new version has the
same ffp file (since the wav's are the same), but a new md5 file
(since the flac files are different). The md5 file for the old source
is called "orig-flac-replaygain-md5"; the md5 file for the good new
source is called "flac-md5". If you have a source for this that
matches the ffp, you can create the new source by unflac'ing the old
source and then recompressing at flac level 8 using the flac command
line tool or the flac frontend.

From now on, only the new version of the source should be circulated.

SteveSw - Nov, 2008
------------------------------------------------------------------------

Dsbd>cdr

Disc 1:

Touch of Grey
King Bee
FOTD
Desolation Row
Tennessee Jed
Easy Answers

Disc 2:

Eyes>
Saint of Circumstance
Way to Go
Crazy Fingers>
Corrina>

Disc 3:

Drums>
Space>
Last Time
SOTM
E: I Fought The Law

No known flaws. Seeded to etree on 1/31/01 by Chaser. Please Report flaws to [email protected]


==========

    length     expanded size    cdr  WAVE problems  fmt   ratio  filename
     7:57.71       84309836 B   ---   --   ---xx   flac  0.5116  gd94-03-31d1t1.flac
     9:12.41       97469276 B   ---   --   ---xx   flac  0.4816  gd94-03-31d1t2.flac
     9:28.25      100254044 B   ---   --   ---xx   flac  0.5172  gd94-03-31d1t3.flac
    10:45.52      113900348 B   ---   --   ---xx   flac  0.5244  gd94-03-31d1t4.flac
     9:01.59       95571212 B   ---   --   ---xx   flac  0.5406  gd94-03-31d1t5.flac
     6:05.26       64447196 B   ---   --   ---xx   flac  0.5664  gd94-03-31d1t6.flac
    19:03.38      201714620 B   ---   --   ---xx   flac  0.5452  gd94-03-31d2t1.flac
     8:43.19       92301932 B   ---   --   ---xx   flac  0.5616  gd94-03-31d2t2.flac
     6:58.27       73798748 B   ---   --   ---xx   flac  0.5650  gd94-03-31d2t3.flac
     9:12.66       97528076 B   ---   --   ---xx   flac  0.5255  gd94-03-31d2t4.flac
    11:36.45      122880284 B   ---   --   ---xx   flac  0.5998  gd94-03-31d2t5.flac
    11:56.32      126377708 B   ---   --   ---xx   flac  0.4796  gd94-03-31d3t1.flac
    20:50.20      220547084 B   ---   --   ---xx   flac  0.4258  gd94-03-31d3t2.flac
     6:59.51       74031596 B   ---   --   ---xx   flac  0.5768  gd94-03-31d3t3.flac
    10:27.51      110722796 B   ---   --   ---xx   flac  0.5464  gd94-03-31d3t4.flac
     3:24.59       36124412 B   ---   --   ---xx   flac  0.4969  gd94-03-31d3t5.flac
   161:45.07     1711979168 B                            0.5222  (16 files)
Show Checksums
ffp
gd94-03-31d1t1.flac:2651686f8ca991449dec93df8a4c652b
gd94-03-31d1t2.flac:3648229b17d5c3aef818c652d3c44251
gd94-03-31d1t3.flac:2b069d0b9ff2b242588215505d53406c
gd94-03-31d1t4.flac:0109517b4f716c84a50c78aee3312eae
gd94-03-31d1t5.flac:fafe6b71fb925bf5ca0fcf8e5784e77e
gd94-03-31d1t6.flac:90c9aa3228f7852be6044fe41adbf0e4
gd94-03-31d2t1.flac:26af583f12a4c5361563ebc78c16e110
gd94-03-31d2t2.flac:ee7ceac5cb6f31270cb4a2cb140cf236
gd94-03-31d2t3.flac:e597113fa183c5750e4a60166ccfea66
gd94-03-31d2t4.flac:8f61b3b80829374327ce1da99775fbfc
gd94-03-31d2t5.flac:0a18f5ab21907bb9a5508e6142dee423
gd94-03-31d3t1.flac:8b80d4161119845d268ff2f2201c59b1
gd94-03-31d3t2.flac:7adefdff604f9b0a5d8410418c897d51
gd94-03-31d3t3.flac:c918b4280d07b601e478ec7db9762603
gd94-03-31d3t4.flac:fbf0eff11f3415d5835b05919da9b2fe
gd94-03-31d3t5.flac:265539a7b91403de87d5a8ddb160f3da
orig-flac-replaygain-md5
65a3c9ee9f75feae8e0ebdca3b721a62 *gd94-03-31d1t1.flac
621623bfb615ba00d1306feb51607f80 *gd94-03-31d1t2.flac
86182b7cc27e88fc62885fdea6eaf800 *gd94-03-31d1t3.flac
3c13eb3d2fbf47308304811220cdf50e *gd94-03-31d1t4.flac
1bfccbaacb53135baf0fbca26420c664 *gd94-03-31d1t5.flac
f04e0b57d1f47db26a8c6cadf4581e63 *gd94-03-31d1t6.flac
ceee2f83e691cc058626a49ee7c7eb7f *gd94-03-31d2t1.flac
5464c4547de7f959928bd10d7238793a *gd94-03-31d2t2.flac
f164c4d3fb959625ae2fffc80927b599 *gd94-03-31d2t3.flac
3310765359c283e0b501afcaae553b36 *gd94-03-31d2t4.flac
2015462e242e78382f2e9fadeb0dcc0f *gd94-03-31d2t5.flac
6a688667d911874d57beabc3a5d88d9c *gd94-03-31d3t1.flac
e86e5cd1b39bceb827932833cc9c43b8 *gd94-03-31d3t2.flac
6a5b1de13580903aadb051afc7f932d0 *gd94-03-31d3t3.flac
abc01832950e28355d08e74dc92aea24 *gd94-03-31d3t4.flac
4c4d195bb3c3d3829fb7ac3f14a9e77e *gd94-03-31d3t5.flac
flac-md5
f71c2c7f7ca1864be39b426433bd9fd2 *gd94-03-31d1t1.flac
a73d8a521628a8061904ebea0f7986bc *gd94-03-31d1t2.flac
d1d2f95b55a31988fedef04678eb5fc2 *gd94-03-31d1t3.flac
57be9089a99a751d0560a432a7323f9b *gd94-03-31d1t4.flac
207cced4f158df9dce2a34cfc5fdaff5 *gd94-03-31d1t5.flac
b4e9f79f3ee7c3f9c42cba741999be66 *gd94-03-31d1t6.flac
1a660ed6776cfd923e8565addfa7915e *gd94-03-31d2t1.flac
7ffc38276ceeef4cf114c9a33a720c63 *gd94-03-31d2t2.flac
6a0fc77f7bacf8774ea8c2d5d65aa955 *gd94-03-31d2t3.flac
dd7755cfa41de6329cc2060ec00a4d54 *gd94-03-31d2t4.flac
5b25f89031aa9d532449d17b789d1989 *gd94-03-31d2t5.flac
25cc0e46ed1753e7e0aab0e77839bbf6 *gd94-03-31d3t1.flac
ee859cbc1fe6aaeff059452a22ec8473 *gd94-03-31d3t2.flac
6b80d65860b9db7e36a9b7492dc8e964 *gd94-03-31d3t3.flac
c9307f0f156d355d741526459cff405e *gd94-03-31d3t4.flac
f9760f1645c67549b1fc8fe84d85b473 *gd94-03-31d3t5.flac

Comments
Add Comment
Other Sources (comments)
Dsbd>cdr; Seeded to etree... (0) Recording Info: SBD -> Dat... (0) flac16; Source:... (0)
Date User Comment
11/09/2006 btet This was inadvertently FLAC encoded with replaygain. If you're playing the FLACs in Winamp you should reFLAC the files without the replaygain option. If you're burning extracted .wavs to CD, these are unaffected and no reFLACing is necessary. I apologize for the error.