Browse Collections Artists Sources   Search Dates

Add Show    List Management    Help


Grateful Dead 04/02/82
Cameron Indoor Stadium, Duke U, Durham, NC
Comments Add Comment    Source Collectors    Add to Collection    Add to Want List    History
Source # 34846 Other Sources
Entered by dr.unclear
Checksums shn-md5 , st5
Disc Counts 2 / 3
Media Size
Date Circulated
Date Added
06/01/2006
06/01/2006
Source Summary MSC>C>DAT>CD>EAC>SHN - Seamless fix of shn id 7221 via Bill Tetzeli 
  Archive
Source Information - Download Text | Download Zip
Grateful Dead
4/2/82
Cameron Indoor Stadium
Duke University
Durham, North Carolina
--------------------------------------------------------------------------------
Fix of shnid 7221

I made the transition between CDs 2 and 3 seamless.  Overlapping fade tracks were added to the end of CD 2 and the beginning of CD 3.  For seamless playback simply remove the fade tracks.

Bill Tetzeli ([email protected])
3/29/2006
--------------------------------------------------------------------------------
Source: Master Soundboard Cassette > Cassette > DAT> CDR

CD Mastering by Scott Clugston
EAC'ed / SHN'ed by Scott Clugston
12/22/01

   Disc 1
   1st Set
1. Minglewood Blues>
2. Sugaree
3. Mama Tried>
4. Mexicali Blues
5. Loser
6. Red Rooster
7. Candyman
8. Looks Like Rain
9. China Cat Sunflower>
10.I Know You Rider

   Disc 2
   2nd Set
1. Samson & Delilah
2. IMHBTR
3. Women Are Smarter
4. He's Gone>
5. Truckin'>
6. Drums >
6fade. (fade out) >

   Disc 3
1fade. (fade in) >
1. Space>
2. The Other One space>
3. The Other One>
4. Black Peter>
5. Sugar Magnolia
   Encore
6. Don't Ease Me In

MD5 checksum:

4ae0d3e123b852b24dee3ca25e0e6e79 *gd82-04-02d1t01.shn
a0948a6dc2a927813c1b218edaa2cad7 *gd82-04-02d1t02.shn
ba24476ff06f2ba34d648ff7d8ff7545 *gd82-04-02d1t03.shn
a30e41e4ed575c4c6f235321dee6ed46 *gd82-04-02d1t04.shn
1a043e6669c500ba06dc12d5daaa55e8 *gd82-04-02d1t05.shn
19cbd2796da3cb3bf354a2793635d852 *gd82-04-02d1t06.shn
ebb14bc1bb60b617eb40df8179edc7cd *gd82-04-02d1t07.shn
3add969239eefa6ac0133d4a90145090 *gd82-04-02d1t08.shn
e59c1a84a623780d5aa9e9b749b925cb *gd82-04-02d1t09.shn
f729afbde0255559eb0f7b9db010ad8d *gd82-04-02d1t10.shn
8822c82ca8c26d4cb86b998fe221e53e *gd82-04-02d2t01.shn
ed5adadf0463d6ef00b91c6e5a957ac2 *gd82-04-02d2t02.shn
11eda5fa3b94d4279b80eee2dd05e342 *gd82-04-02d2t03.shn
a48ead71d764f0549b24958062d1505f *gd82-04-02d2t04.shn
a2f86f9b91d1d63e669f514667353759 *gd82-04-02d2t05.shn
a2480f4aa810f48cab613ca99304202b *gd82-04-02d2t06.shn
533a58df7e7658c923be9f9e5e23614d *gd82-04-02d2t06fade.shn
1f5db4e9f539c09ec4edd24e199d2e61 *gd82-04-02d3t01fade.shn
b792bbcd7291cc89111c36cba0bf3be0 *gd82-04-02d3t01.shn
822ed16d48987668f689bfc9a27aa9d7 *gd82-04-02d3t02.shn
b717f2634188fd5e9c87a9881093f4fd *gd82-04-02d3t03.shn
ca064664bf173f8023acad4e01e456b4 *gd82-04-02d3t04.shn
2d90880027ebcc86faddb7c74ef98000 *gd82-04-02d3t05.shn
a7b143b56a6774dcd239d50b64a61484 *gd82-04-02d3t06.shn

shntool output:

    length     expanded size   cdr  WAVE problems filename
     6:44.54       71392652    ---   --   ---xx   gd82-04-02d1t01.shn
    11:04.32      117204908    ---   --   ---xx   gd82-04-02d1t02.shn
     2:30.47       26570588    ---   --   ---xx   gd82-04-02d1t03.shn
     4:47.45       50732684    ---   --   ---xx   gd82-04-02d1t04.shn
     7:03.36       74701916    ---   --   ---xx   gd82-04-02d1t05.shn
     7:59.71       84662636    ---   --   ---xx   gd82-04-02d1t06.shn
     6:40.05       70571804    ---   --   ---xx   gd82-04-02d1t07.shn
     9:52.07      104445308    ---   --   ---xx   gd82-04-02d1t08.shn
     6:12.34       65700812    ---   --   ---xx   gd82-04-02d1t09.shn
     5:37.67       59604428    ---   --   ---xx   gd82-04-02d1t10.shn
     8:44.45       92539484    ---   --   ---xx   gd82-04-02d2t01.shn
     6:27.51       68386796    ---   --   ---xx   gd82-04-02d2t02.shn
     5:45.23       60912140    ---   --   ---xx   gd82-04-02d2t03.shn
    14:15.48      150934940    ---   --   ---xx   gd82-04-02d2t04.shn
     9:13.13       97579820    ---   --   ---xx   gd82-04-02d2t05.shn
    10:36.53      112315100    ---   --   ---xx   gd82-04-02d2t06.shn
     0:19.66        3506876    ---   --   ---xx   gd82-04-02d2t06fade.shn
     6:03.26       64094396    ---   --   ---xx   gd82-04-02d3t01.shn
     0:19.54        3478652    ---   --   ---xx   gd82-04-02d3t01fade.shn
     3:25.03       36169100    ---   --   ---xx   gd82-04-02d3t02.shn
     8:01.71       85015436    ---   --   ---xx   gd82-04-02d3t03.shn
     8:08.64       86233772    ---   --   ---xx   gd82-04-02d3t04.shn
     9:50.51      104195996    ---   --   ---xx   gd82-04-02d3t05.shn
     3:13.46       34153436    ---   --   ---xx   gd82-04-02d3t06.shn
   162:59.37     1725103680 B                     (totals for 24 files, 0.6576 overall compression ratio)
Show Checksums
shn-md5
4ae0d3e123b852b24dee3ca25e0e6e79 *gd82-04-02d1t01.shn
a0948a6dc2a927813c1b218edaa2cad7 *gd82-04-02d1t02.shn
ba24476ff06f2ba34d648ff7d8ff7545 *gd82-04-02d1t03.shn
a30e41e4ed575c4c6f235321dee6ed46 *gd82-04-02d1t04.shn
1a043e6669c500ba06dc12d5daaa55e8 *gd82-04-02d1t05.shn
19cbd2796da3cb3bf354a2793635d852 *gd82-04-02d1t06.shn
ebb14bc1bb60b617eb40df8179edc7cd *gd82-04-02d1t07.shn
3add969239eefa6ac0133d4a90145090 *gd82-04-02d1t08.shn
e59c1a84a623780d5aa9e9b749b925cb *gd82-04-02d1t09.shn
f729afbde0255559eb0f7b9db010ad8d *gd82-04-02d1t10.shn
8822c82ca8c26d4cb86b998fe221e53e *gd82-04-02d2t01.shn
ed5adadf0463d6ef00b91c6e5a957ac2 *gd82-04-02d2t02.shn
11eda5fa3b94d4279b80eee2dd05e342 *gd82-04-02d2t03.shn
a48ead71d764f0549b24958062d1505f *gd82-04-02d2t04.shn
a2f86f9b91d1d63e669f514667353759 *gd82-04-02d2t05.shn
a2480f4aa810f48cab613ca99304202b *gd82-04-02d2t06.shn
533a58df7e7658c923be9f9e5e23614d *gd82-04-02d2t06fade.shn
1f5db4e9f539c09ec4edd24e199d2e61 *gd82-04-02d3t01fade.shn
b792bbcd7291cc89111c36cba0bf3be0 *gd82-04-02d3t01.shn
822ed16d48987668f689bfc9a27aa9d7 *gd82-04-02d3t02.shn
b717f2634188fd5e9c87a9881093f4fd *gd82-04-02d3t03.shn
ca064664bf173f8023acad4e01e456b4 *gd82-04-02d3t04.shn
2d90880027ebcc86faddb7c74ef98000 *gd82-04-02d3t05.shn
a7b143b56a6774dcd239d50b64a61484 *gd82-04-02d3t06.shn
st5
d8ad4b7760e003e79cca1b90fbbb87a7 [shntool] gd82-04-02d1t01.shn
a8471455ff047464f75bdf360764081b [shntool] gd82-04-02d1t02.shn
ebf8882b15635b2da38bfa078e3f16a3 [shntool] gd82-04-02d1t03.shn
2dfe438970a1c777d59674e2a39345f9 [shntool] gd82-04-02d1t04.shn
da21cd1a8160146fcdd0b4e4cd431003 [shntool] gd82-04-02d1t05.shn
5a999932f9b2a8973e7c5beaacef49f3 [shntool] gd82-04-02d1t06.shn
9b077048e93034a975885f7d3b4682a2 [shntool] gd82-04-02d1t07.shn
6ae83bfc45a7eb873e31c9c05ccf1c27 [shntool] gd82-04-02d1t08.shn
ef73391c43b4f72e2f37336e1a16fe94 [shntool] gd82-04-02d1t09.shn
899f1a706b39a88bc9848fa6c37fdc16 [shntool] gd82-04-02d1t10.shn
45507abb8397a76ab5581c76929939ed [shntool] gd82-04-02d2t01.shn
fbfe26491772abe55099b008b9ef07f5 [shntool] gd82-04-02d2t02.shn
87caeff2289e133658af0db04c842040 [shntool] gd82-04-02d2t03.shn
536aeb4088f77304bc4f2c221123aeed [shntool] gd82-04-02d2t04.shn
4908f88cd57ec0996143b2ead9897615 [shntool] gd82-04-02d2t05.shn
8ee23ae6b6b4e9cec76119a2e243fc55 [shntool] gd82-04-02d2t06.shn
de923d305772fcc0c8e9c1b35057a147 [shntool] gd82-04-02d2t06fade.shn
e3a2dfc205ae3841e1c9c29a338a3053 [shntool] gd82-04-02d3t01.shn
8ba6c4192e74905990868b64b9f54d9f [shntool] gd82-04-02d3t01fade.shn
49fc1458c40b2ddf2a466ca07c0541ea [shntool] gd82-04-02d3t02.shn
d468da5832e53316018a8112846db536 [shntool] gd82-04-02d3t03.shn
6a8f9ffa615dc0ff6c9c62603f855ac1 [shntool] gd82-04-02d3t04.shn
47e66906069fef582f456609790ea967 [shntool] gd82-04-02d3t05.shn
9cc8e51872093c3b1e5cfaf2d91d7695 [shntool] gd82-04-02d3t06.shn

Comments
Add Comment
Other Sources (comments)
Master Soundboard Cassette... (1) flac16; AUD Source:... (2) flac16; Recording... (0) flac16; Recording... (0) flac16; NAK deck > 2... (3) flac16; AUD Source:... (1) flac24; AUD:... (0) flac16; AUD:... (0)
Date User Comment
07/10/2006 Bill Tetzeli This fix and the source it came from are pitched at least a semitone too high. There's already a lot of wow and warble in it, when I adjusted the pitch on Minglewood it sounded like Jerry was playing underwater. I'm not even going to try doing a pitch correction on this, just hope something better turns up eventually.