Browse Collections Artists Sources   Search Dates

Add Show    List Management    Help


Grateful Dead 09/26/91
Boston Garden, Boston, MA
Comments Add Comment    Source Collectors    Add to Collection    Add to Want List    History
Source # 34851 Other Sources
Entered by dr.unclear
Checksums ffp , flac-md5
Disc Counts 1 / 1
Media Size
Date Circulated
Date Added
06/01/2006
06/02/2006
Source Summary flac16/48; Set 2 only - DAUD FOB B&K 4011 B&Ks on mic stand from Sec. BB Row 18 Seat 15 recorded by Clay Brennecke > Modified Sony D10 Pro > DAT (1) > TASCAM DA-20 > M-Audio FireWire solo > Soundforge 8.0 wav > Adobe Audition 1.5* 48kHz > flac (8)  
  Archive
Source Information - Download Text | Download Zip
Grateful Dead
09-26-1991
Boston Garden
Boston, MA

DAUD FOB B&K 4011 B&Ks on mic stand from Sec. BB Row 18 Seat 15 recorded by Clay Brennecke > Modified Sony D10 Pro

DAT from collection of Todd Evans - [email protected]
DAT (2) > TASCAM DA-20 > M-Audio FireWire solo > Soundforge 8.0 wav

Edited by James E. - [email protected]
Adobe Audition 1.5* > flac (8)


Disc 1

Set 2
01. Dark Star >
02. Saint of Circumstance >
03. Eyes of the World >
04. Drums >
05. Space >
06. Other One >
07. Dark Star >
08. Attics of my Life >
09. Good Lovin

Encore
10. Brokedown Palace ->
11. We Bid You Goodnight

Time
1:33:38


*Adobe Audition 1.5 Edits:

Tick Fixed @
11:52.146
13:34.033
22:54.306
41:34.924
48:22.727
51:46.421
56:01.229
1:19:48.104
1:26:35.726

Clipping Fixed @
23:34.734 R
23:40.499 L
1:19:56.921 L
1:22:50.000
1:33:25.072

Fade Out Applied @
1:33:37.825 - 1:33:42.818


shntool output
    length     expanded size   cdr  WAVE problems filename
    16:54.048     194697260    cxx   --   ---xx   gd1991-09-26d1t01.flac
     6:47.698      78278060    cxx   --   ---xx   gd1991-09-26d1t02.flac
    12:40.124     145943852    cxx   --   ---xx   gd1991-09-26d1t03.flac
    12:18.769     141843692    cxx   --   ---xx   gd1991-09-26d1t04.flac
     8:00.556      92266796    cxx   --   ---xx   gd1991-09-26d1t05.flac
     7:36.375      87624044    cxx   --   ---xx   gd1991-09-26d1t06.flac
     6:37.523      76324460    cxx   --   ---xx   gd1991-09-26d1t07.flac
     5:23.425      62097644    cxx   --   ---xx   gd1991-09-26d1t08.flac
     8:51.347     102018668    cxx   --   ---xx   gd1991-09-26d1t09.flac
     5:12.819      60061292    cxx   --   ---xx   gd1991-09-26d1t10.flac
     3:20.134      38425772    cxx   --   ---xx   gd1991-09-26d1t11.flac
    93:42.818    1079581540 B                     (totals for 11 files, 0.5330 overall compression ratio)


a **GEMS** production   www.shnflac.net June 2006
Show Checksums
ffp
gd1991-09-26d1t01.flac:9d6adc24a16ba6e636b5b40fc2f5992f
gd1991-09-26d1t02.flac:86fdad7667dca5f2f7034569b4648a1c
gd1991-09-26d1t03.flac:9c186e241040f1b5ee1db7e20871a98a
gd1991-09-26d1t04.flac:e0ad2abdc1ba884b822d2da98e74a26a
gd1991-09-26d1t05.flac:50b86dd757f7f22525414969ec2717e0
gd1991-09-26d1t06.flac:d2237548ef9e8f4a266915a76f3b876d
gd1991-09-26d1t07.flac:d3baf74a1295238c077fe0f3d9820b3a
gd1991-09-26d1t08.flac:8febbe33471a5d8780f6cf950ff2b7bc
gd1991-09-26d1t09.flac:89d4d8af8b430aa318e53161be2be032
gd1991-09-26d1t10.flac:a2c8bd5561e4231f0ca7f1d034e40112
gd1991-09-26d1t11.flac:723a654f1415d4ffba0addeaaa7acd4a
flac-md5
b068d4139d84f2b3716a6cfa7744a8f4 *gd1991-09-26d1t01.flac
315fbf8a50a94bbd84c567a51a0515f0 *gd1991-09-26d1t02.flac
235bbe71548f4e37a2004d1efdc1765c *gd1991-09-26d1t03.flac
c002425286b21346c3acdbf0fb238f4d *gd1991-09-26d1t04.flac
0ff9eded9439c6c47d36cc20663f09c3 *gd1991-09-26d1t05.flac
661ff7d137a527f8b00d48ee6440fc60 *gd1991-09-26d1t06.flac
f3be3490cf4b745465c9f3902a87f7df *gd1991-09-26d1t07.flac
8584d240ea737a1de70f053a63a3196d *gd1991-09-26d1t08.flac
aac1ebbd2ca9df38bdb7089b7e1b2b89 *gd1991-09-26d1t09.flac
fa30edcd94183fedccf2e8c59cc2796a *gd1991-09-26d1t10.flac
452ab18587f4997e9dfafac8e56ddf77 *gd1991-09-26d1t11.flac

Comments
Add Comment
Other Sources (comments)
SBD> MC> DAT> CDA; high... (1) SBD(1)>DAT>CD>EAC>CDWAVE>MK... (6) flac16; Set 2 only -... (1) flac16; Recording... (0) flac16; AUD Source:... (0) flac16/48; AUD... (0) flac16; Sennheiser... (0) flac16; Matrix by... (0) flac16; Recording... (1) flac16; Lineage:... (0) flac16; Matrix of... (0) DTS Audio 5.1; Mix... (0) flac24; Master... (0) flac16; Master... (0) flac24; Master... (0) flac16; Master... (0) flac16; DSBD Masters... (0) flac16/48kHz;... (0)
Date User Comment