Browse Collections Artists Sources   Search Dates

Add Show    List Management    Help


Grateful Dead 09/26/91
Boston Garden, Boston, MA
Comments Add Comment    Source Collectors    Add to Collection    Add to Want List    History
Source # 34852 Other Sources
Entered by dr.unclear
Checksums ffp , flac-md5
Disc Counts 1 / 2
Media Size
Date Circulated
Date Added
06/02/2006
06/02/2006
Source Summary flac16; Set 2 only - DAUD FOB B&K 4011 B&Ks on mic stand from Sec. BB Row 18 Seat 15 recorded by Clay Brennecke > Modified Sony D10 Pro > DAT (1) > TASCAM DA-20 > M-Audio FireWire solo > Soundforge 8.0 wav > Adobe Audition 1.5* 44kHz > flac (8) 
  Archive
Source Information - Download Text | Download Zip
Grateful Dead
09-26-1991
Boston Garden
Boston, MA

A 16 bit 44kHz GEM

DAUD FOB B&K 4011 B&Ks on mic stand from Sec. BB Row 18 Seat 15 recorded by Clay Brennecke > Modified Sony D10 Pro

DAT from collection of Todd Evans - [email protected]
DAT (2) > TASCAM DA-20 > M-Audio FireWire solo > Soundforge 8.0 wav

Edited by James E. - [email protected]
Adobe Audition 1.5* 44kHz > flac (8)


Disc 1

Set 2
01. Dark Star >
02. Saint of Circumstance >
03. Eyes of the World >

Time
36:21

Disc2
01. Drums >
02. Space >
03. Other One >
04. Dark Star >
05. Attics of my Life >
06. Good Lovin

Encore
07. Brokedown Palace ->
08. We Bid You Goodnight

Time
57:17


*Adobe Audition 1.5 Edits:

Tick Fixed @
11:52.146
13:34.033
22:54.306
41:34.924
48:22.727
51:46.421
56:01.229
1:19:48.104
1:26:35.726

Clipping Fixed @
23:34.734 R
23:40.499 L
1:19:56.921 L
1:22:50.000
1:33:25.072

Fade Out Applied @
1:33:37.825 - 1:33:42.818

Convert 16bit48kHz to 16bit44.1kHz

Tracks are seamless along discs.

shntool output
    length     expanded size   cdr  WAVE problems filename
    16:54.04      178879052    ---   --   ---xx   gd1991-09-26d1t01.flac
     6:47.52       71917148    ---   --   ---xx   gd1991-09-26d1t02.flac
    12:40.09      134085212    ---   --   ---xx   gd1991-09-26d1t03.flac
    12:18.58      130319660    ---   --   ---xx   gd1991-09-26d2t01.flac
     8:00.42       84770828    ---   --   ---xx   gd1991-09-26d2t02.flac
     7:36.28       80504300    ---   --   ---xx   gd1991-09-26d2t03.flac
     6:37.39       70122572    ---   --   ---xx   gd1991-09-26d2t04.flac
     5:23.32       57052508    ---   --   ---xx   gd1991-09-26d2t05.flac
     8:51.26       93729596    ---   --   ---xx   gd1991-09-26d2t06.flac
     5:12.61       55180316    ---   --   ---xx   gd1991-09-26d2t07.flac
     3:20.10       35303564    ---   --   ---xx   gd1991-09-26d2t08.flac
    93:42.61      991864756 B                     (totals for 11 files, 0.5475 overall compression ratio)

a **GEMS** production   www.shnflac.net June 2006
Show Checksums
ffp
gd1991-09-26d1t01.flac:03ffe0da8eed191f0bcc3a6294385067
gd1991-09-26d1t02.flac:8ee19897470caf4e97422aac97c999d9
gd1991-09-26d1t03.flac:2c26643d1b80a95140b40108f7a7d6fb
gd1991-09-26d2t01.flac:dccb467c62406f5ba7afc390e1480648
gd1991-09-26d2t02.flac:688ed4147f0c61f25e707951835c6ff1
gd1991-09-26d2t03.flac:27f883343ba48458620ecd80bd3a4022
gd1991-09-26d2t04.flac:1718c816a3b01cb8dd889792669ab753
gd1991-09-26d2t05.flac:472a36d79e41010c4e5b89bee6321e5d
gd1991-09-26d2t06.flac:9f50545b0683e418db9cd1a622d97f7f
gd1991-09-26d2t07.flac:f6d1914bdc5046084d7575a84f0ae86c
gd1991-09-26d2t08.flac:fcbaff8891e94b22e92ef79374ce4fe9
flac-md5
8a034240085fd490d9ffd688e1f187cb *gd1991-09-26d1t01.flac
75f8fb17f6afa9ff798c0ccfd0979fe5 *gd1991-09-26d1t02.flac
ef4fbcfeb722f18a49131fddc22ce24e *gd1991-09-26d1t03.flac
64ecb0ffa2a2a4ea1fb22ae9b2e63733 *gd1991-09-26d2t01.flac
4cec5eb6d9a08c0e072bb40f87d010ec *gd1991-09-26d2t02.flac
085b2e31dc8db85808942858949678fc *gd1991-09-26d2t03.flac
c3aa00b911e0f97f9d1ec844542234d5 *gd1991-09-26d2t04.flac
f2ab6d74cc12522942fc7baf67f0413e *gd1991-09-26d2t05.flac
b3735e8956fe74dc2ff6fdbfeb25b099 *gd1991-09-26d2t06.flac
741a29b30b8573ecec5ee2fba6070a62 *gd1991-09-26d2t07.flac
5a5ac640a72bc5cdb62d0173297dca97 *gd1991-09-26d2t08.flac

Comments
Add Comment
Other Sources (comments)
SBD> MC> DAT> CDA; high... (1) SBD(1)>DAT>CD>EAC>CDWAVE>MK... (6) flac16/48; Set 2... (0) flac16; Recording... (0) flac16; AUD Source:... (0) flac16/48; AUD... (0) flac16; Sennheiser... (0) flac16; Matrix by... (0) flac16; Recording... (1) flac16; Lineage:... (0) flac16; Matrix of... (0) DTS Audio 5.1; Mix... (0) flac24; Master... (0) flac16; Master... (0) flac24; Master... (0) flac16; Master... (0) flac16; DSBD Masters... (0) flac16/48kHz;... (0)
Date User Comment
06/05/2006 Clay Brennecke I taped this show with a little help from someon'es whose name I have written down somewhere but can't find right now...

Here are some Taping Stats that go with the show:

Set One: Hand-held from Sec. BB Row 19 Seat 11
Set Two: B&Ks on mic stand from Sec. BB Row 18 Seat 15

The signauture at the end should say something like "Workin' it hard!"

It was a tough tough venue that night to tape FOB...
Questions?
Clay Brennecke
4720 Portobello Road
Columbia SC 29206
http://home.sc.rr.com/adrenalinezone/

Cheers!
Clay Brennecke