Browse Collections Artists Sources   Search Dates

Add Show    List Management    Help


Grateful Dead 08/31/83
Silva Hall, Hult Center, Eugene, OR
Comments Add Comment    Source Collectors    Add to Collection    Add to Want List    History
Source # 34928 Other Sources
Entered by Matt Vernon
Checksums ffp , flac-md5
Disc Counts 2 / 2
Media Size
Date Circulated
Date Added
06/06/2006
06/06/2006
Source Summary flac16; Lineage: AUD > unknown mics > Sony TC-D5 > MAC > 1st generation cassettes Transfer: Sony UCX-S 90s > Sony TC-D5M > Soundblaster > Soundforge > CD-Wave > TLH (for SBE-OK, FLAC compression, and checksums) > FLAC 
  Archive
Source Information - Download Text | Download Zip
GRATEFUL DEAD
Silva Hall
Hult Center
Eugene OR
August 31, 1983

AUD Source (1st Gen, see note below)

Disc One - Set One & Encores (75:28)

01 Alabama Getaway >
02 Greatest Story Ever Told
03 Dupree's Diamond Blues
04 Me & My Uncle >
05 Mexicali Blues
06 West L.A. Fade Away
07 Hell In A Bucket
08 Althea
09 Cassidy
10 Don't Ease Me In
-- encore one --
11 U.S. Blues
-- encore two --
12 Kesey stage announcements
13 Satisfaction

Disc Two - Set Two (72:41)

01 Cold Rain & Snow
02 Playin' In The Band >
03 China Doll >
04 Playin' Jam >
05 Drums* >
06 Blues Jam* >
07 Truckin' Intro Jam* >
08 Truckin' >
09 Stella Blue >
10 Around & Around >
11 Good Lovin'
(*With Ken Kesey on harmonica)

Lineage: AUD > unknown mics > Sony TC-D5 > MAC > 1st generation cassettes.
Transfer: Sony UCX-S 90s > Sony TC-D5M > Soundblaster > Soundforge > CD-Wave >
TLH (for SBE-OK, FLAC compression, and checksums) > FLAC > bt.etree June 2006.

Notes: When I lived in Oregon in 1983 I was able to copy this source from a
local taper. I only wrote "D5" and "NR Off" on the J-card, and forgot to
write down what mics he used, although I believe it was likely Sennheisers.
The levels on the master were run somewhat hot, which is noticeable in a few
spots. The right mic dropped out for the first 1:43 of Me & My Uncle, so I
patched over it with the wav's from the left channel. The tape flip in the
second set is patched from the LAMA source, making the second set seamless.
Soundforge was used to create fades, adjust levels, repair around the tape
flips, to correct the pitch for the patched-in bits, and to do the patching.

Patches from LAMA's Aud source:
0:00 to 0:11 of Alabama Getaway
1:41 to 1:43 of Me & My Uncle
0:00 to 0:16 of Cold Rain & Snow
1:25 to 1:32 of Truckin Intro Jam

ENJOY AND SMILE !


MD-5

bdd9b28927b4e4b7344b5249e1735c27 *gd1983-08-31d1t01.flac
17749463edb80172d09d9b9243631452 *gd1983-08-31d1t02.flac
cd51a7eac74ca62a6dde683a85d34072 *gd1983-08-31d1t03.flac
f4d9a5d636fdeed75a543c1558ca8358 *gd1983-08-31d1t04.flac
82b58a81803991a8d0b1737d12d9b309 *gd1983-08-31d1t05.flac
9f72bef19dd03c0e6fd8e306f6a72cdb *gd1983-08-31d1t06.flac
658410e46aa483f4353051d2489b3514 *gd1983-08-31d1t07.flac
5885ca4f84184423f8bfb53a2a13c243 *gd1983-08-31d1t08.flac
3c2188e8407a1b3fcc0dbfd0e731ebc9 *gd1983-08-31d1t09.flac
2f326638280391fdf41cdef316edb9a0 *gd1983-08-31d1t10.flac
a37f273f4c97941499e677195083c468 *gd1983-08-31d1t11.flac
4630a2b1b318a59fbab0b2fccc4de180 *gd1983-08-31d1t12.flac
63ff2f97a5c09a5da4124565feeab94d *gd1983-08-31d1t13.flac
f983e6a86bc6be73ab1febaa04759795 *gd1983-08-31d2t01.flac
6c7df99fe308a67a381afc0621bd9c9e *gd1983-08-31d2t02.flac
ba6ebd49131ca114691e3e9a39d52937 *gd1983-08-31d2t03.flac
df0a6dcd3a84184165cd996bc9ed5442 *gd1983-08-31d2t04.flac
9f28f120fc40bcf62b1b56a9874d55d9 *gd1983-08-31d2t05.flac
390e0ae606a52aabdd78ecc91970f896 *gd1983-08-31d2t06.flac
e21430009e616749dfc1701f25ee58b9 *gd1983-08-31d2t07.flac
fb0ae56dcc70c89f2ef442c008dd40c2 *gd1983-08-31d2t08.flac
788c643cba1dab5c2ce57f7120d6788f *gd1983-08-31d2t09.flac
4ec7b45b47f94082452558860f6480e9 *gd1983-08-31d2t10.flac
37c4ab3b7aaf50902dd8b31eb59f6533 *gd1983-08-31d2t11.flac

FFP

gd1983-08-31d1t01.flac:f8f593fcad89c76e593f2cbd149d633a
gd1983-08-31d1t02.flac:c2e70f845afbad06d6ee02f4943a5b01
gd1983-08-31d1t03.flac:30c5127e591afdaceab83b3c703414df
gd1983-08-31d1t04.flac:f9e15abfbc00e2d9ff3733f21d07ac3b
gd1983-08-31d1t05.flac:2cdff2f10efa8d5c547279c3ecb642af
gd1983-08-31d1t06.flac:a76069e42ea322535d7cf490ac3454cf
gd1983-08-31d1t07.flac:fe0dd37e5b665a11927be682ee7e7f64
gd1983-08-31d1t08.flac:ed17ff8d310922b8273d569ef02ab17a
gd1983-08-31d1t09.flac:e94ef2c3846137059ac5cacf835253e3
gd1983-08-31d1t10.flac:5b0cbfb4b5daebd87ff8cbdbcbbe993a
gd1983-08-31d1t11.flac:70dc1c11fd665c1bdd8969a744ed6d8d
gd1983-08-31d1t12.flac:46f44cb36e0d9c67c54c11a8ad335b96
gd1983-08-31d1t13.flac:25e968e9d82dc840180955217f1478d6
gd1983-08-31d2t01.flac:c3794a018a18a6cf69d4cc13964e582a
gd1983-08-31d2t02.flac:48fec7cf60598d07be71b9b1239f91ff
gd1983-08-31d2t03.flac:6730ca5b4becaf4e748a7a6d74083130
gd1983-08-31d2t04.flac:710f58066c83ae1de8120bcec9f2043e
gd1983-08-31d2t05.flac:fb13b38967f9d810aaff3e388dfb8cb6
gd1983-08-31d2t06.flac:7f6c927b5674b56317dfc82d60f338f2
gd1983-08-31d2t07.flac:9b55977755f212dbfe919a3aec0247e5
gd1983-08-31d2t08.flac:dc994e4a94ed6d5890297fe3184cc878
gd1983-08-31d2t09.flac:505eea00300d6ffadb6782f106803bbc
gd1983-08-31d2t10.flac:20bb83ca05fd3053c0c77266c36a85db
gd1983-08-31d2t11.flac:b39e1b1e5cab10e4b51a1da3c7e1b1af

SHNTOOL

    length     expanded size   cdr  WAVE problems filename
     5:27.18       57725180    ---   --   ---xx   gd1983-08-31d1t01.flac
     4:04.14       43074572    ---   --   ---xx   gd1983-08-31d1t02.flac
     7:16.18       76952780    ---   --   ---xx   gd1983-08-31d1t03.flac
     3:06.49       32925692    ---   --   ---xx   gd1983-08-31d1t04.flac
     5:06.66       54133676    ---   --   ---xx   gd1983-08-31d1t05.flac
     9:37.25      101841644    ---   --   ---xx   gd1983-08-31d1t06.flac
     5:06.59       54117212    ---   --   ---xx   gd1983-08-31d1t07.flac
    10:14.56      108441356    ---   --   ---xx   gd1983-08-31d1t08.flac
     6:21.22       67260188    ---   --   ---xx   gd1983-08-31d1t09.flac
     3:19.57       35237708    ---   --   ---xx   gd1983-08-31d1t10.flac
     5:30.11       58237916    ---   --   ---xx   gd1983-08-31d1t11.flac
     3:07.19       33031532    ---   --   ---xx   gd1983-08-31d1t12.flac
     7:09.54       75802652    ---   --   ---xx   gd1983-08-31d1t13.flac
     6:19.09       66876812    ---   --   ---xx   gd1983-08-31d2t01.flac
    10:33.59      111800012    ---   --   ---xx   gd1983-08-31d2t02.flac
     5:31.43       58489580    ---   --   ---xx   gd1983-08-31d2t03.flac
     4:48.54       50930252    ---   --   ---xx   gd1983-08-31d2t04.flac
     6:49.68       72307580    ---   --   ---xx   gd1983-08-31d2t05.flac
     4:43.58       50057660    ---   --   ---xx   gd1983-08-31d2t06.flac
     3:39.50       38749244    ---   --   ---xx   gd1983-08-31d2t07.flac
     7:54.41       83710076    ---   --   ---xx   gd1983-08-31d2t08.flac
     9:14.34       97805612    ---   --   ---xx   gd1983-08-31d2t09.flac
     3:46.21       39915836    ---   --   ---xx   gd1983-08-31d2t10.flac
     9:19.42       98706428    ---   --   ---xx   gd1983-08-31d2t11.flac
   148:09.47     1568131200 B                     (totals for 24 files, 0.6066 overall compression ratio)

There were no sector boundary errors.
Show Checksums
ffp
gd1983-08-31d1t01.flac:f8f593fcad89c76e593f2cbd149d633a
gd1983-08-31d1t02.flac:c2e70f845afbad06d6ee02f4943a5b01
gd1983-08-31d1t03.flac:30c5127e591afdaceab83b3c703414df
gd1983-08-31d1t04.flac:f9e15abfbc00e2d9ff3733f21d07ac3b
gd1983-08-31d1t05.flac:2cdff2f10efa8d5c547279c3ecb642af
gd1983-08-31d1t06.flac:a76069e42ea322535d7cf490ac3454cf
gd1983-08-31d1t07.flac:fe0dd37e5b665a11927be682ee7e7f64
gd1983-08-31d1t08.flac:ed17ff8d310922b8273d569ef02ab17a
gd1983-08-31d1t09.flac:e94ef2c3846137059ac5cacf835253e3
gd1983-08-31d1t10.flac:5b0cbfb4b5daebd87ff8cbdbcbbe993a
gd1983-08-31d1t11.flac:70dc1c11fd665c1bdd8969a744ed6d8d
gd1983-08-31d1t12.flac:46f44cb36e0d9c67c54c11a8ad335b96
gd1983-08-31d1t13.flac:25e968e9d82dc840180955217f1478d6
gd1983-08-31d2t01.flac:c3794a018a18a6cf69d4cc13964e582a
gd1983-08-31d2t02.flac:48fec7cf60598d07be71b9b1239f91ff
gd1983-08-31d2t03.flac:6730ca5b4becaf4e748a7a6d74083130
gd1983-08-31d2t04.flac:710f58066c83ae1de8120bcec9f2043e
gd1983-08-31d2t05.flac:fb13b38967f9d810aaff3e388dfb8cb6
gd1983-08-31d2t06.flac:7f6c927b5674b56317dfc82d60f338f2
gd1983-08-31d2t07.flac:9b55977755f212dbfe919a3aec0247e5
gd1983-08-31d2t08.flac:dc994e4a94ed6d5890297fe3184cc878
gd1983-08-31d2t09.flac:505eea00300d6ffadb6782f106803bbc
gd1983-08-31d2t10.flac:20bb83ca05fd3053c0c77266c36a85db
gd1983-08-31d2t11.flac:b39e1b1e5cab10e4b51a1da3c7e1b1af
flac-md5
bdd9b28927b4e4b7344b5249e1735c27 *gd1983-08-31d1t01.flac
17749463edb80172d09d9b9243631452 *gd1983-08-31d1t02.flac
cd51a7eac74ca62a6dde683a85d34072 *gd1983-08-31d1t03.flac
f4d9a5d636fdeed75a543c1558ca8358 *gd1983-08-31d1t04.flac
82b58a81803991a8d0b1737d12d9b309 *gd1983-08-31d1t05.flac
9f72bef19dd03c0e6fd8e306f6a72cdb *gd1983-08-31d1t06.flac
658410e46aa483f4353051d2489b3514 *gd1983-08-31d1t07.flac
5885ca4f84184423f8bfb53a2a13c243 *gd1983-08-31d1t08.flac
3c2188e8407a1b3fcc0dbfd0e731ebc9 *gd1983-08-31d1t09.flac
2f326638280391fdf41cdef316edb9a0 *gd1983-08-31d1t10.flac
a37f273f4c97941499e677195083c468 *gd1983-08-31d1t11.flac
4630a2b1b318a59fbab0b2fccc4de180 *gd1983-08-31d1t12.flac
63ff2f97a5c09a5da4124565feeab94d *gd1983-08-31d1t13.flac
f983e6a86bc6be73ab1febaa04759795 *gd1983-08-31d2t01.flac
6c7df99fe308a67a381afc0621bd9c9e *gd1983-08-31d2t02.flac
ba6ebd49131ca114691e3e9a39d52937 *gd1983-08-31d2t03.flac
df0a6dcd3a84184165cd996bc9ed5442 *gd1983-08-31d2t04.flac
9f28f120fc40bcf62b1b56a9874d55d9 *gd1983-08-31d2t05.flac
390e0ae606a52aabdd78ecc91970f896 *gd1983-08-31d2t06.flac
e21430009e616749dfc1701f25ee58b9 *gd1983-08-31d2t07.flac
fb0ae56dcc70c89f2ef442c008dd40c2 *gd1983-08-31d2t08.flac
788c643cba1dab5c2ce57f7120d6788f *gd1983-08-31d2t09.flac
4ec7b45b47f94082452558860f6480e9 *gd1983-08-31d2t10.flac
37c4ab3b7aaf50902dd8b31eb59f6533 *gd1983-08-31d2t11.flac

Comments
Add Comment
Other Sources (comments)
AUD (Senn. 421?s)> MC> DAT>... (1) flac16; AUD (Senn.... (0) flac16; Source: 2... (0) flac16/48kHz;... (0) flac24; Source Info:... (0) flac16; Source Info:... (0) flac16/44.1 ... (0) flac24/48 Master:... (0)
Date User Comment