Browse Collections Artists Sources   Search Dates

Add Show    List Management    Help


Grateful Dead 08/28/82
Oregon Country Fair, Veneta, OR
Comments Add Comment    Source Collectors    Add to Collection    Add to Want List    History
Source # 34933 Other Sources
Entered by Matt Vernon
Checksums flac-md5 , ffp , orig-flac-replaygain-md5
Disc Counts 2 / 3
Media Size
Date Circulated
Date Added
06/02/2006
06/07/2006
Source Summary flac16; sbd>>cassette master>>cassette>>cdr>>WAV>>shn>>wav>>flac - fix of shn id 2333. Note Added 11/9/08: Reflac version w/o replay gain added. See info file for details 
  Archive
Source Information - Download Text | Download Zip
Grateful Dead
8/28/82
Oregon Country Fairgrounds
Veneta, OR
------------------------------------------------------------------------
Fix of shnid 2333

I made the transition between CDs 2 and 3 seamless. I also split
Playin', Drums, Space, The Wheel, Black Peter and Playin' Reprise into
separate tracks. Finally, I converted the whole fileset to FLAC for
seekability. Sector boundaries fixed and verified using shntool.

Bill Tetzeli ([email protected])
3/29/2006
------------------------------------------------------------------------
When this source was first circulated, the flac files contained
REPLAYGAIN tags. The wav files compressed inside the flac files are
fine, but if you listen to the flac files themselves using a player
like WinAMP, these tags cause all the tracks to be played at the same
volume. That's not good for concerts where some tracks are supposed to
be louder than others.

There's a new version of this source available. It has exactly the
same wav files; it's just the flac wrapper that's different, the
wrapper doesn't have REPLAYGAIN set anymore. The new version has the
same ffp file (since the wav's are the same), but a new md5 file
(since the flac files are different). The md5 file for the old source
is called "orig-flac-replaygain-md5"; the md5 file for the good new
source is called "flac-md5". If you have a source for this that
matches the ffp, you can create the new source by unflac'ing the old
source and then recompressing at flac level 8 using the flac command
line tool or the flac frontend.

From now on, only the new version of the source should be circulated.

SteveSw - Nov, 2008
------------------------------------------------------------------------

sbd>>cassette master>>cassette>>cdr>>WAV>>shn>>wav>>flac

set 1
CD1
bertha
new minglewood blues
tennessee jed
me & my uncle>>
big river
althea (cassette flip)
it's all over now
chinacat sunflower>>
i know you rider

set 2
CD2
ken babbs intro>>day job
man smart, women smarter
west la fadeaway
far from me
playin' in the band>>
drums>>

CD3
space>>
the wheel>>
the other one>>
truckin'>>
black peter>>
playin' reprise>>
one more sat night
encore
dupree's diamond blues

10th anniversary of kesey's farm.
this is from rock scully's collection.
any song help send to [email protected]


==========

    length     expanded size    cdr  WAVE problems  fmt   ratio  filename
     7:04.69       74955932 B   ---   --   ---xx   flac  0.5849  gd82-08-28d1t01.flac
     7:25.17       78538028 B   ---   --   ---xx   flac  0.6009  gd82-08-28d1t02.flac
     8:18.41       87943676 B   ---   --   ---xx   flac  0.5988  gd82-08-28d1t03.flac
     3:01.61       32071916 B   ---   --   ---xx   flac  0.5952  gd82-08-28d1t04.flac
     6:29.18       68661980 B   ---   --   ---xx   flac  0.5972  gd82-08-28d1t05.flac
     8:10.53       86560700 B   ---   --   ---xx   flac  0.5896  gd82-08-28d1t06.flac
     8:44.01       92435996 B   ---   --   ---xx   flac  0.6131  gd82-08-28d1t07.flac
     8:52.06       93858956 B   ---   --   ---xx   flac  0.6097  gd82-08-28d1t08.flac
     5:20.58       56584460 B   ---   --   ---xx   flac  0.6189  gd82-08-28d1t09.flac
     5:50.18       61782380 B   ---   --   ---xx   flac  0.6101  gd82-08-28d2t01.flac
     7:04.30       74864204 B   ---   --   ---xx   flac  0.6108  gd82-08-28d2t02.flac
     7:12.09       76226012 B   ---   --   ---xx   flac  0.6079  gd82-08-28d2t03.flac
     3:34.18       37791980 B   ---   --   ---xx   flac  0.5904  gd82-08-28d2t04.flac
    10:51.33      114914060 B   ---   --   ---xx   flac  0.5799  gd82-08-28d2t05.flac
     6:39.51       70503596 B   ---   --   ---xx   flac  0.5454  gd82-08-28d2t06.flac
     6:00.64       63654572 B   ---   --   ---xx   flac  0.5190  gd82-08-28d3t01.flac
     6:17.59       66641612 B   ---   --   ---xx   flac  0.5814  gd82-08-28d3t02.flac
     7:15.57       76868108 B   ---   --   ---xx   flac  0.5929  gd82-08-28d3t03.flac
     5:55.27       62685548 B   ---   --   ---xx   flac  0.5979  gd82-08-28d3t04.flac
     8:37.44       91302332 B   ---   --   ---xx   flac  0.5671  gd82-08-28d3t05.flac
     2:51.59       30303212 B   ---   --   ---xx   flac  0.5893  gd82-08-28d3t06.flac
     4:33.26       48218396 B   ---   --   ---xx   flac  0.6024  gd82-08-28d3t07.flac
     5:55.01       62624396 B   ---   --   ---xx   flac  0.5789  gd82-08-28d3t08.flac
   152:06.70     1609992052 B                            0.5905  (23 files)
Show Checksums
flac-md5
e9c3e9bfa0bd94c1cb3503536df7e9d8 *gd82-08-28d1t01.flac
d8222cb86734fc725ef1d0694fe38e58 *gd82-08-28d1t02.flac
1310b7f74a53432411c5e847a7076673 *gd82-08-28d1t03.flac
abf6dc6172dd0736b0a2fd7cfad77654 *gd82-08-28d1t04.flac
37649943d4727efa97a3fb8974b88046 *gd82-08-28d1t05.flac
b3f21c6996a1a5500c80ca633bd81762 *gd82-08-28d1t06.flac
a583c3a0e79dbdb77c37789f822e22f9 *gd82-08-28d1t07.flac
d5160406e61f7ee86045c1318b7d0bdb *gd82-08-28d1t08.flac
a08c406a1d5467b4eb1421a5adb953dc *gd82-08-28d1t09.flac
f8b452751b28e8cd28101c880a1a726f *gd82-08-28d2t01.flac
eb100347d1bad5559c335004e3c56ece *gd82-08-28d2t02.flac
74d9fe079921947e43ab8d079c2136bd *gd82-08-28d2t03.flac
2c9abba5bfe007580fd9f3bde89f889f *gd82-08-28d2t04.flac
08b0a9684fe5ca5b157cd2a1dfc9b474 *gd82-08-28d2t05.flac
2a829813f934db4dc33cd72b926ba6b0 *gd82-08-28d2t06.flac
6db6766e77a3f773a8907fecd7110691 *gd82-08-28d3t01.flac
1497edb5c58ddaf4d793b3405d7c6dac *gd82-08-28d3t02.flac
c04ad0b32d3e87b24683d7c387b8daf4 *gd82-08-28d3t03.flac
8da15d506d43d2c672864c8d2cacbd36 *gd82-08-28d3t04.flac
07682c6960c6db46ccbb2e1213cfa1d7 *gd82-08-28d3t05.flac
6160817ebb1e0ffe67fe4792336d907e *gd82-08-28d3t06.flac
8c45f71ca6bfde1b76fa48330c782bbc *gd82-08-28d3t07.flac
6725261a0528115cad1fc8671c9b2cdb *gd82-08-28d3t08.flac
ffp
gd82-08-28d1t01.flac:9d0837447b545323b23a7a20eeed0348
gd82-08-28d1t02.flac:28d6d1e4828423a132f5b18d4ce097bd
gd82-08-28d1t03.flac:41978b1277e1e5da9a0ff0453a621412
gd82-08-28d1t04.flac:895afe938faf37e79a547e5fa6ddf869
gd82-08-28d1t05.flac:107451d4000a84672a38e80e3def7bcf
gd82-08-28d1t06.flac:a6f108e938186a8950b51b41839b9d97
gd82-08-28d1t07.flac:fc75f51ddc28c771c7fa62ae50a51584
gd82-08-28d1t08.flac:f9ad0235743e0005ee1c04ff23fd20ac
gd82-08-28d1t09.flac:f363a80aba2a9d9ad8b80e015aa0aaee
gd82-08-28d2t01.flac:99a6cb4af49b0bee57aca1d92c5321b6
gd82-08-28d2t02.flac:c9ab2b2a8e692fb1d636b619de638265
gd82-08-28d2t03.flac:a5b43bc77404afe2488edfb8d66f32dc
gd82-08-28d2t04.flac:917f54be5db1b7aa799078a0e8547e06
gd82-08-28d2t05.flac:427b13df71df9a9095a784f88af90088
gd82-08-28d2t06.flac:58b062637492df1bc7e7e16ee23121f6
gd82-08-28d3t01.flac:186bef401d990ae5d53eda5c2edf5d09
gd82-08-28d3t02.flac:1714ce2e9648703469c5e7510d39dc56
gd82-08-28d3t03.flac:58e70edb8c0b20b58a9314ae20140c30
gd82-08-28d3t04.flac:bfd47c2c2bc6bc0d9d90921e1b96c12e
gd82-08-28d3t05.flac:9836168923affb6897377b1eabbc0236
gd82-08-28d3t06.flac:2a3a1b21a0be54fdae79f0f5ffdbfa5f
gd82-08-28d3t07.flac:74e36e918691e20b60c5e9eac85725a2
gd82-08-28d3t08.flac:8e8c767627e26ca975dd64ea0f5e0f55
orig-flac-replaygain-md5
932d3961501ebf2fee8292ce6ef860d9 *gd82-08-28d1t01.flac
9dc9f8f36a4671552eaa3a1a53bd7bbb *gd82-08-28d1t02.flac
3b84b8f400b295e555464f5b723a35c2 *gd82-08-28d1t03.flac
5f3c61c4641ca5e846d7063a20a020e8 *gd82-08-28d1t04.flac
6de583f76f50edee0a20d70512000f1b *gd82-08-28d1t05.flac
2639d504b701600e44950f6903d47c50 *gd82-08-28d1t06.flac
711cf3da74911fc3ca74cee92ac321de *gd82-08-28d1t07.flac
8aa2d81778ffefd0ee4f2364a8ae75c2 *gd82-08-28d1t08.flac
873796c64a03f56e2a369e858248e883 *gd82-08-28d1t09.flac
607a1cd841cef7f4b74d043c42d131ed *gd82-08-28d2t01.flac
bb1ee70e94d97cc0ad8053459a335d8c *gd82-08-28d2t02.flac
4cc83cd7f962f32465e09c7ee51a09a9 *gd82-08-28d2t03.flac
ff42312a84a1691946c469fb1af70fdf *gd82-08-28d2t04.flac
6b4e2208005b017e16a11fd9dc191abd *gd82-08-28d2t05.flac
688c44fced4bea23acbe727945795835 *gd82-08-28d2t06.flac
a26e8811cefc79926466b4ccfd6a1f51 *gd82-08-28d3t01.flac
068e319945589ff84442b3a7f52a710c *gd82-08-28d3t02.flac
9ce4d68c495590d610702c4997fa962b *gd82-08-28d3t03.flac
2d874d84b22c0f4772030ccf02588ea6 *gd82-08-28d3t04.flac
5a12910ccbc3f5546f32f12511ce4f37 *gd82-08-28d3t05.flac
ff55e13b9ce3275c8071e978f8b8fed6 *gd82-08-28d3t06.flac
0ce6d28c6b9443bb8fc722617aee54a4 *gd82-08-28d3t07.flac
d64f3e16d6a179b124d017913ca97fb0 *gd82-08-28d3t08.flac

Comments
Add Comment
Other Sources (comments)
sdb> cassette master>... (5) flac16; Set 2 only -... (0) flac16; Recording... (1) flac16;Recording... (0) flac16;Recording... (0) flac16; Recording... (0) flac16; Source Info:... (0)
Date User Comment
11/09/2006 btet This was inadvertently FLAC encoded with replaygain. If you're playing the FLACs in Winamp you should reFLAC the files without the replaygain option. If you're burning extracted .wavs to CD, these are unaffected and no reFLACing is necessary. I apologize for the error.