Browse Collections Artists Sources   Search Dates

Add Show    List Management    Help


Grateful Dead 10/31/83
Marin County Veterans Auditorium, San Rafael, CA
Comments Add Comment    Source Collectors    Add to Collection    Add to Want List    History
Source # 34934 Other Sources
Entered by dr.unclear
Checksums shn-md5 , st5
Disc Counts 2 / 3
Media Size
Date Circulated
Date Added
06/04/2006
06/07/2006
Source Summary SBD>MC>DAT>CDR>EAC>CDWAV>SHN - Fix of shn id 3827 via Bill Tetzeli 
  Archive
Source Information - Download Text | Download Zip
Grateful Dead
October 31, 1983
Marin County Civic Center - San Rafael, CA
------------------------------------------------------------------------------------
Fix of shnid 3827

I made the transition between CDs 2 and 3 seamless. SBEs resulting from the fix were fixed and verified using shntool. Overlapping fade tracks were added to the end of CD 2 and the beginning of CD 3. For seamless playback simply remove the fade tracks.

Bill Tetzeli ([email protected])
4/1/2006
------------------------------------------------------------------------------------
SBD>MC>DAT>CDR>EAC>CDWAV>SHN

Disc 1 ~ Set 1
Wang Dang Doodle>
Brother Esau
Peggy O
Little Red Rooster
Brown-Eyed Women
Lost Sailor>
Saint of Circumstance>
Deal

Disc 2 ~ Set 2
Help on the Way>
Slipknot>
Franklin's Tower
Estimated Prophet>
Eyes of the World>
Drums>
(fade out)>

Disc 3
(fade in)>
Space>
St. Stephen*>
Throwing Stones>
Not Fade Away
ENCORE Revolution

*Final Time Played

Please report any flaws to Tony Gardner [email protected]

Thanks to Paul Bottiglio for the discs

seeded to etree 4-01

MD5 checksum:

4abf83b9383707ca6921e0ff8a81470f *gd1983-10-31d1t01.shn
9ef86c2bce2c58b9f2f5832fb00d6768 *gd1983-10-31d1t02.shn
9d9b004fa81b9d0332cbf984cb173481 *gd1983-10-31d1t03.shn
a6bed85d34f34794ae406d1f4b896cce *gd1983-10-31d1t04.shn
08e479d5faf61cd5c49005aa2e072f7c *gd1983-10-31d1t05.shn
65b37644c33953cb6f36cf10083728f2 *gd1983-10-31d1t06.shn
dccafac3cc795dd882b4d0d41849dc82 *gd1983-10-31d1t07.shn
1f7963695ab76eadd79245914b911108 *gd1983-10-31d1t08.shn
c55f9904b993cfb6e4bab59cd29e7a9a *gd1983-10-31d2t01.shn
5778851e32f55cd4a0c5e36e44d22fe4 *gd1983-10-31d2t02.shn
ce7faca591aa3ff98ec30ba47ca8741a *gd1983-10-31d2t03.shn
5b3706a17763a972409014e8f47849d4 *gd1983-10-31d2t04.shn
0191498c582f44f59a3b5a26a36d5a5e *gd1983-10-31d2t05.shn
90dc3727b0cf017e80a646bb33d95221 *gd1983-10-31d2t05fade.shn
c6104946b872133ea3a7fb2dc7881742 *gd1983-10-31d3t01fade.shn
3cb472df571e8e0d04fadccf79e04fa3 *gd1983-10-31d3t01.shn
1e09bf83140204bea1715273f0a8c73c *gd1983-10-31d3t02.shn
317839ebd177293602dd5222d3a79c16 *gd1983-10-31d3t03.shn
cfd272a0c6990fc2a7120f13f7c54fd9 *gd1983-10-31d3t04.shn
29df8eefab5a5f86984097c61995c5c7 *gd1983-10-31d3t05.shn
2b26b89abf3a790eee997cd3716d489e *gd1983-10-31d3t06.shn

shntool output:

length expanded size cdr WAVE problems filename
5:40.65 60128924 --- -- ---xx gd1983-10-31d1t01.shn
5:02.49 53388092 --- -- ---xx gd1983-10-31d1t02.shn
8:06.15 85765724 --- -- ---xx gd1983-10-31d1t03.shn
7:37.20 80661884 --- -- ---xx gd1983-10-31d1t04.shn
4:58.42 52666028 --- -- ---xx gd1983-10-31d1t05.shn
6:10.62 65413868 --- -- ---xx gd1983-10-31d1t06.shn
6:16.23 66380540 --- -- ---xx gd1983-10-31d1t07.shn
7:08.27 75562748 --- -- ---xx gd1983-10-31d1t08.shn
3:36.16 38140076 --- -- ---xx gd1983-10-31d2t01.shn
5:54.25 62504444 --- -- ---xx gd1983-10-31d2t02.shn
13:00.47 137702588 --- -- ---xx gd1983-10-31d2t03.shn
11:29.67 121697228 --- -- ---xx gd1983-10-31d2t04.shn
12:59.40 137509724 --- -- ---xx gd1983-10-31d2t05.shn
0:20.06 3542156 --- -- ---xx gd1983-10-31d2t05fade.shn
13:44.73 145525340 --- -- ---xx gd1983-10-31d3t01.shn
0:20.33 3605660 --- -- ---xx gd1983-10-31d3t01fade.shn
15:13.36 161137916 --- -- ---xx gd1983-10-31d3t02.shn
6:39.41 70480076 --- -- ---xx gd1983-10-31d3t03.shn
9:35.70 101594684 --- -- ---xx gd1983-10-31d3t04.shn
9:12.54 97499852 --- -- ---xx gd1983-10-31d3t05.shn
5:14.67 55547228 --- -- ---xx gd1983-10-31d3t06.shn
158:23.53 1676454780 B (totals for 21 files, 0.6633 overall compression ratio)
Show Checksums
shn-md5
4abf83b9383707ca6921e0ff8a81470f *gd1983-10-31d1t01.shn
9ef86c2bce2c58b9f2f5832fb00d6768 *gd1983-10-31d1t02.shn
9d9b004fa81b9d0332cbf984cb173481 *gd1983-10-31d1t03.shn
a6bed85d34f34794ae406d1f4b896cce *gd1983-10-31d1t04.shn
08e479d5faf61cd5c49005aa2e072f7c *gd1983-10-31d1t05.shn
65b37644c33953cb6f36cf10083728f2 *gd1983-10-31d1t06.shn
dccafac3cc795dd882b4d0d41849dc82 *gd1983-10-31d1t07.shn
1f7963695ab76eadd79245914b911108 *gd1983-10-31d1t08.shn
c55f9904b993cfb6e4bab59cd29e7a9a *gd1983-10-31d2t01.shn
5778851e32f55cd4a0c5e36e44d22fe4 *gd1983-10-31d2t02.shn
ce7faca591aa3ff98ec30ba47ca8741a *gd1983-10-31d2t03.shn
5b3706a17763a972409014e8f47849d4 *gd1983-10-31d2t04.shn
0191498c582f44f59a3b5a26a36d5a5e *gd1983-10-31d2t05.shn
90dc3727b0cf017e80a646bb33d95221 *gd1983-10-31d2t05fade.shn
c6104946b872133ea3a7fb2dc7881742 *gd1983-10-31d3t01fade.shn
3cb472df571e8e0d04fadccf79e04fa3 *gd1983-10-31d3t01.shn
1e09bf83140204bea1715273f0a8c73c *gd1983-10-31d3t02.shn
317839ebd177293602dd5222d3a79c16 *gd1983-10-31d3t03.shn
cfd272a0c6990fc2a7120f13f7c54fd9 *gd1983-10-31d3t04.shn
29df8eefab5a5f86984097c61995c5c7 *gd1983-10-31d3t05.shn
2b26b89abf3a790eee997cd3716d489e *gd1983-10-31d3t06.shn
st5
6099db367674d2c51e00890dc26b18fc [shntool] gd1983-10-31d1t01.shn
3890b2a5f542a17f289d904eabb588c2 [shntool] gd1983-10-31d1t02.shn
899bcb690d8c992322cfa1cc9342b039 [shntool] gd1983-10-31d1t03.shn
b5c73adbfb15e1f1499e6efa3d60c9ac [shntool] gd1983-10-31d1t04.shn
dd4b4805b6785a87e222e0e70e4b11c5 [shntool] gd1983-10-31d1t05.shn
4463bdf7d6c270f487247160993d8f24 [shntool] gd1983-10-31d1t06.shn
e76ff011e5a5f30d7c6dd331576b17b0 [shntool] gd1983-10-31d1t07.shn
56883120490724ccb24c7adfe0831c99 [shntool] gd1983-10-31d1t08.shn
2266d85fed97ab7c15063e4ac6019797 [shntool] gd1983-10-31d2t01.shn
88349c9300e6792ce3370ca126a66f11 [shntool] gd1983-10-31d2t02.shn
2d6ecd11d48564229b11f7f6cd70a35e [shntool] gd1983-10-31d2t03.shn
e23a9c247c480cca9cfd3435d30b0768 [shntool] gd1983-10-31d2t04.shn
48b7ef84a54581e2a49593016816bf47 [shntool] gd1983-10-31d2t05.shn
cdc3edacb971c3384650d10600d02ae0 [shntool] gd1983-10-31d2t05fade.shn
2b814eb28133e9411a1cb5e73128cd1c [shntool] gd1983-10-31d3t01.shn
6ff39fa743aa7f4276eab3d578288699 [shntool] gd1983-10-31d3t01fade.shn
f62a895162b567617a1efb5e7fec490e [shntool] gd1983-10-31d3t02.shn
bf2d5077f83667086e1d27db96980bfc [shntool] gd1983-10-31d3t03.shn
135864f0c8a4d0e8d0f821ced44e7b19 [shntool] gd1983-10-31d3t04.shn
8866115aea55324fe2da611b428507f6 [shntool] gd1983-10-31d3t05.shn
ad8feca77e6544d3874e175265604207 [shntool] gd1983-10-31d3t06.shn

Comments
Add Comment
Other Sources (comments)
Master Soundboard Cassette... (1) SBD> MC> DAT> CDR> EAC>... (1) Source: FOB(Nak... (1) flac16; Source: FOB... (1)
Date User Comment
06/28/2008 nfagdtrfb Correction to text file: Disc 2 is Help thru Eyes, with the short fade track being the start of Drums. Disc 3 is End of Eyes fade track, then Drums thru end of the show.
06/03/2014 jfw Unfortunately Space is missing nearly 15 seconds. It probably originated in the soundboard master's tape flip but it makes this otherwise fine recording have a brutal flaw in the jam-out-of-the-ashes that becomes St. Stephen.

The gap is covered up by a butt splice at about 7:15 in Space. SHN ID 3811 instead makes these two portions separate tracks (Space and Jam). You can hear the missing portion from about 3:17-3:31 in SHN ID 19894 ().
06/03/2014 jfw The gap occurs 46 minutes after the beginning of Estimated, so it clearly is due to a tape flip. Our only hope for a clean upgrade to this is if we find another soundboard master out from a different deck, flipped at a different time...