Browse Collections Artists Sources   Search Dates

Add Show    List Management    Help


Grateful Dead 12/04/79
Uptown Theater, Chicago, IL
Comments Add Comment    Source Collectors    Add to Collection    Add to Want List    History
Source # 34937 Other Sources
Entered by Matt Vernon
Checksums ffp , orig-flac-replaygain-md5 , flac-md5
Disc Counts 2 / 3
Media Size
Date Circulated
Date Added
06/07/2006
06/07/2006
Source Summary flac16; lineage: Master Soundboard Cassette -> Cassette -> DAT transfer: DAT -> CD -> EAC -> SHN - Fix of shn id 2535. Note Added 11/9/08: Reflac version w/o replay gain added. See info file for details 
  Archive
Source Information - Download Text | Download Zip
Grateful Dead
December 4th, 1979
Uptown Theater
Chicago, IL
------------------------------------------------------------------------
Fix of shnid 2535

I made the transition between CDs 2 and 3 seamless. The jam after
Franklin's was actually on d2t05, that's been updated in the info
text. d3t01 was merged into d2t06. Resulting SBEs were cleaned up
using shntool. Nonseekable SHNs were converted to FLAC.
------------------------------------------------------------------------
When this source was first circulated, the flac files contained
REPLAYGAIN tags. The wav files compressed inside the flac files are
fine, but if you listen to the flac files themselves using a player
like WinAMP, these tags cause all the tracks to be played at the same
volume. That's not good for concerts where some tracks are supposed to
be louder than others.

There's a new version of this source available. It has exactly the
same wav files; it's just the flac wrapper that's different, the
wrapper doesn't have REPLAYGAIN set anymore. The new version has the
same ffp file (since the wav's are the same), but a new md5 file
(since the flac files are different). The md5 file for the old source
is called "orig-flac-replaygain-md5"; the md5 file for the good new
source is called "flac-md5". If you have a source for this that
matches the ffp, you can create the new source by unflac'ing the old
source and then recompressing at flac level 8 using the flac command
line tool or the flac frontend.

From now on, only the new version of the source should be circulated.

SteveSw - Nov, 2008
------------------------------------------------------------------------

lineage: Master Soundboard Cassette -> Cassette -> DAT

DAT -> CD -> EAC -> SHN conversion by Scott Clugston

Seeded to Etree 1/15/00 by AJ - [email protected] - Enjoy!

Disc #1 (Set One):

01. Jack Straw
02. Peggy-O
03. Mama Tried ->
04. Mexicali Blues
05. They Love Each Other
06. Minglewood
07. Stagger Lee
08. Passenger ->
09. Deal

Disc #2 (Set Two):

01. China Cat ->
02. I Know You Rider
03. Looks Like Rain
04. Estimated Prophet ->
05. Franklin's Tower -> Jam ->
06. Drums ->

Disc #3 (Set Two pt.2):

01. Space ->
03. Not Fade Away ->
04. Stella Blue ->
04. Sugar Magnolia
05. encore: U.S. Blues

known flaws:
Static (from SBDMC) in d1t3 0:32-0:35, 2:06
Static (from SBDMC) in d1t6 3:30-3:33, 4:01

Special thanks to Scott Clugston for helping get this seed out.


==========

    length     expanded size    cdr  WAVE problems  fmt   ratio  filename
     6:57.17       73598828 B   ---   --   ---xx   flac  0.5627  gd79-12-04d1t01.flac
     7:41.54       81447452 B   ---   --   ---xx   flac  0.5195  gd79-12-04d1t02.flac
     2:49.51       29931596 B   ---   --   ---xx   flac  0.5815  gd79-12-04d1t03.flac
     4:59.55       52873004 B   ---   --   ---xx   flac  0.5749  gd79-12-04d1t04.flac
     7:36.30       80509004 B   ---   --   ---xx   flac  0.5530  gd79-12-04d1t05.flac
     7:39.27       81031148 B   ---   --   ---xx   flac  0.5851  gd79-12-04d1t06.flac
     8:32.41       90413276 B   ---   --   ---xx   flac  0.5814  gd79-12-04d1t07.flac
     5:10.40       54778124 B   ---   --   ---xx   flac  0.6131  gd79-12-04d1t08.flac
     4:57.01       52393196 B   ---   --   ---xx   flac  0.5940  gd79-12-04d1t09.flac
     7:27.59       78989612 B   ---   --   ---xx   flac  0.5413  gd79-12-04d2t01.flac
     7:17.04       77096252 B   ---   --   ---xx   flac  0.5826  gd79-12-04d2t02.flac
     9:02.38       95698220 B   ---   --   ---xx   flac  0.5324  gd79-12-04d2t03.flac
    12:00.26      127069196 B   ---   --   ---xx   flac  0.5769  gd79-12-04d2t04.flac
    20:40.05      218747804 B   ---   --   ---xx   flac  0.5736  gd79-12-04d2t05.flac
     9:20.60       98925164 B   ---   --   ---xx   flac  0.5169  gd79-12-04d2t06.flac
     5:37.58       59583260 B   ---   --   ---xx   flac  0.4862  gd79-12-04d3t01.flac
     9:46.50      103488044 B   ---   --   ---xx   flac  0.5957  gd79-12-04d3t02.flac
     9:02.39       95700572 B   ---   --   ---xx   flac  0.5331  gd79-12-04d3t03.flac
     8:56.39       94642172 B   ---   --   ---xx   flac  0.6183  gd79-12-04d3t04.flac
     5:40.17       60016028 B   ---   --   ---xx   flac  0.5912  gd79-12-04d3t05.flac
   161:16.36     1706931952 B                            0.5653  (20 files)
Show Checksums
ffp
gd79-12-04d1t01.flac:0ff91a0d09bda8c77c9ddab1c44791e1
gd79-12-04d1t02.flac:6e64d0441022991de9a84d63ff913cdc
gd79-12-04d1t03.flac:fa3be6352cc0a91b7558361b65925d99
gd79-12-04d1t04.flac:f944607eed99994539efb1f2e87ca4f2
gd79-12-04d1t05.flac:b09233b0118479a33b188616805ddb7d
gd79-12-04d1t06.flac:f572f24c2db2d4650cc9094f2d2245b8
gd79-12-04d1t07.flac:b7a915af0b2ea85d9c3200fd4378d72d
gd79-12-04d1t08.flac:316be68979acd5bd7db51ee35af7c3d3
gd79-12-04d1t09.flac:4e95e0b13f53f8bc69a2f097664f6a6b
gd79-12-04d2t01.flac:b06c6f4fdae16dda72428832b8346873
gd79-12-04d2t02.flac:d84ca341db47306874afb9334f787cea
gd79-12-04d2t03.flac:6a126cd85f18d114c01655da4cd570d0
gd79-12-04d2t04.flac:e2c5a31da55907c42d6534b5817da921
gd79-12-04d2t05.flac:119e4df34ec3dd15718328dc294e9edf
gd79-12-04d2t06.flac:54184cd99fd0c00e4d192c5d0fe650f3
gd79-12-04d3t01.flac:244d8e08415ce70087dc1a398645533e
gd79-12-04d3t02.flac:c2b1753640759e556bf345c1299c2517
gd79-12-04d3t03.flac:935e7ea6c15590e0f0b412dabde7a090
gd79-12-04d3t04.flac:c68691f18a1386a1cfbda34868d5deba
gd79-12-04d3t05.flac:84f13dc95d0bccca781afac113354323
orig-flac-replaygain-md5
8c1d53b91cfae73d4bcabea454c325e5 *gd79-12-04d1t01.flac
a55cacd22e381f1718a0bf714847395a *gd79-12-04d1t02.flac
b2d21529b83001689d4bf1c81b19fa5d *gd79-12-04d1t03.flac
f3e3f11cc21611e218f7f45f137f068b *gd79-12-04d1t04.flac
47edb84f2145ef39477ccf5afbe88e64 *gd79-12-04d1t05.flac
cdbbdc5b812348a41368406c2326aad4 *gd79-12-04d1t06.flac
8c2de83064f8149386cabd17d259ad7f *gd79-12-04d1t07.flac
0a5cfa44b2f2857f89973fb97f0e4c62 *gd79-12-04d1t08.flac
b7bc5c955c981f8ca6a7b72d89811f9d *gd79-12-04d1t09.flac
19cb60de14f3038e8c2ff3f40d6b84bf *gd79-12-04d2t01.flac
276d36c1cb742bf9139aaac95a72c355 *gd79-12-04d2t02.flac
a96906d6ddf9f8710ad6d54c021714a2 *gd79-12-04d2t03.flac
2fc6761c3620eda0db258ec9584d6522 *gd79-12-04d2t04.flac
e38924bb9d4050fafcd2d7a7e47d2fb5 *gd79-12-04d2t05.flac
3c3bbd611d6bad7c3d1edd39f1414640 *gd79-12-04d2t06.flac
d96f36f94f0d74e01b8bcb67435d144a *gd79-12-04d3t01.flac
b57602c5593986a7e05bbf2e0d781358 *gd79-12-04d3t02.flac
0ba7a5f939d6875612b82aa2824fa468 *gd79-12-04d3t03.flac
6d80839a702cf08d243082db3009d9bb *gd79-12-04d3t04.flac
14f7f86fb7d86598fe70c626993c06ae *gd79-12-04d3t05.flac
flac-md5
5a2b6bdb4f330043befd325f0cc7f7d4 *gd79-12-04d1t01.flac
5d7f937a55243701a58c1dd0be06691c *gd79-12-04d1t02.flac
e2227e5369ccab63404223ccfa075059 *gd79-12-04d1t03.flac
9c346d4f1d0f76331d66ecdc077f9ca6 *gd79-12-04d1t04.flac
ee406ea11fd8b9d164d9a148af6765f8 *gd79-12-04d1t05.flac
fe9bf4d69c7ab9b6c90b68ecc6b3e906 *gd79-12-04d1t06.flac
a58a66fa2a171bb1119c248fd459f89e *gd79-12-04d1t07.flac
5a41412008395395726873d2017f3243 *gd79-12-04d1t08.flac
090d3143c5a89bc317cbfec7bda04a55 *gd79-12-04d1t09.flac
0cb5d3697bf3f9245fb9b51b0264e41b *gd79-12-04d2t01.flac
9fdda820f7fd77e218a112fdf7d6bf06 *gd79-12-04d2t02.flac
11e7aac8328bcdb42d7105452de98a98 *gd79-12-04d2t03.flac
c1bdd50f0b3342b0eb6e3c6be98de15d *gd79-12-04d2t04.flac
18d29e72d4efc64610a799c624588e41 *gd79-12-04d2t05.flac
8b4cf00840dd597ae1e4f51df86eb6b4 *gd79-12-04d2t06.flac
084685dff401ac29d379c872c4c84a9f *gd79-12-04d3t01.flac
c7afb189e527ed803cba1a6ae492ceb2 *gd79-12-04d3t02.flac
78193d732c97733e0ce1ca4c2084d182 *gd79-12-04d3t03.flac
7ab05f0fde8f29b807d680bc479778b2 *gd79-12-04d3t04.flac
6fda57a07a3dce179ed337f04bc465a0 *gd79-12-04d3t05.flac

Comments
Add Comment
Other Sources (comments)
Master Soundboard Cassette... (2) flac16; Recording by... (0) flac16; Recording... (0) flac16; 2 source... (0)
Date User Comment
11/09/2006 btet This was inadvertently FLAC encoded with replaygain. If you're playing the FLACs in Winamp you should reFLAC the files without replaygain option. If you're burning extracted .wavs to CD, these are unaffected and no reFLACing is necessary. I apologize for the error.