Browse Collections Artists Sources   Search Dates

Add Show    List Management    Help


Grateful Dead 12/10/79
Soldiers' and Sailors' Memorial Hall, Kansas City, KS
Comments Add Comment    Source Collectors    Add to Collection    Add to Want List    History
Source # 34938 Other Sources
Entered by Matt Vernon
Checksums ffp , orig-flac-replaygain-md5 , flac-md5
Disc Counts 2 / 3
Media Size
Date Circulated
Date Added
06/07/2006
06/07/2006
Source Summary flac16; Set 1 SBD>Cm>Reel>Dat>CD>EAC>SHN, Set 2 SBD>Cm>?>Dat>CD>EAC>SHN - Fix of shn id 3371 via Bill Tetzeli 
  Archive
Source Information - Download Text | Download Zip
Grateful Dead
12/10/79
Soldiers and Sailors Memorial Hall
Kansas City, Kansas
------------------------------------------------------------------------
Fix of shnid 3371

Not much of a fix here - I merged the two drums tracks together into
one to make set two seamless; for some reason drums had been split
across CDs 2 and 3. There's still a cut at 3.5 secs into drums. If
anyone has a good AUD patch for this show please take a stab at fixing
it. Also, the Scarlet>Fire patch could use some work, it's not
pitch-adjusted or cross-faded.

Bill Tetzeli ([email protected])
12:08 PM 5/17/2006
------------------------------------------------------------------------
When this source was first circulated, the flac files contained
REPLAYGAIN tags. The wav files compressed inside the flac files are
fine, but if you listen to the flac files themselves using a player
like WinAMP, these tags cause all the tracks to be played at the same
volume. That's not good for concerts where some tracks are supposed to
be louder than others.

There's a new version of this source available. It has exactly the
same wav files; it's just the flac wrapper that's different, the
wrapper doesn't have REPLAYGAIN set anymore. The new version has the
same ffp file (since the wav's are the same), but a new md5 file
(since the flac files are different). The md5 file for the old source
is called "orig-flac-replaygain-md5"; the md5 file for the good new
source is called "flac-md5". If you have a source for this that
matches the ffp, you can create the new source by unflac'ing the old
source and then recompressing at flac level 8 using the flac command
line tool or the flac frontend.

From now on, only the new version of the source should be circulated.

SteveSw - Nov, 2008
------------------------------------------------------------------------

Set 1 SBD>Cm>Reel>Dat>CD>EAC>SHN
Set 2 SBD>Cm>?>Dat>CD>EAC>SHN

Disc 1:

Set 1

1) Cold Rain & Snow>
2) Greatest Story
3) Peggy-O
4) Mama Tried>
5) Mexicali Blues
6) Tennessee Jed
7) Dancin'>
8) Franklin's>
9) Looks Like Rain>
10) Deal

Disc 2 (set 2):

1) Scarlet>
2) Fire
3) Easy to Love You>
4) Let It Grow>
5) He's Gone>
6) Truckin'>
7) Drums>

Disc 3:

Set 2 cont.

2) Space>
3) Wharf Rat>
4) Johnny B. Goode
5) E: U.S. Blues


notes:
D1T8 Franklins: 1:40-2:00 Right Channel Reduction

Audience Patch:
All of Scarlet Begonias and the
first 1:20 of Fire on the Mountain

DAT>CD Transfer by the usual
gang you c around the community

CD>EAC>SHN Transfer by Saint Stephen
EAC=copy and test,offsets configured
wav>shn done with MKW tool.
uploaded to etree 4/2/01 - enjoy
[email protected]


==========

    length     expanded size    cdr  WAVE problems  fmt   ratio  filename
     6:18.17       66719228 B   ---   --   ---xx   flac  0.4818  gd79-12-10d1t01.flac
     4:26.25       46981244 B   ---   --   ---xx   flac  0.4932  gd79-12-10d1t02.flac
     6:38.39       70298972 B   ---   --   ---xx   flac  0.4594  gd79-12-10d1t03.flac
     2:34.31       27238556 B   ---   --   ---xx   flac  0.5089  gd79-12-10d1t04.flac
     4:57.10       52414364 B   ---   --   ---xx   flac  0.5043  gd79-12-10d1t05.flac
     9:20.16       98821676 B   ---   --   ---xx   flac  0.4912  gd79-12-10d1t06.flac
    10:19.26      109252796 B   ---   --   ---xx   flac  0.5075  gd79-12-10d1t07.flac
    10:49.72      114652988 B   ---   --   ---xx   flac  0.5151  gd79-12-10d1t08.flac
     8:25.01       89084396 B   ---   --   ---xx   flac  0.4856  gd79-12-10d1t09.flac
     4:31.36       47889116 B   ---   --   ---xx   flac  0.5185  gd79-12-10d1t10.flac
    11:17.70      119587484 B   ---   --   ---xx   flac  0.6938  gd79-12-10d2t01.flac
    13:23.53      141773900 B   ---   --   ---xx   flac  0.5997  gd79-12-10d2t02.flac
     4:09.33       44001260 B   ---   --   ---xx   flac  0.5831  gd79-12-10d2t03.flac
    10:02.43      106293980 B   ---   --   ---xx   flac  0.6113  gd79-12-10d2t04.flac
    12:17.04      130016252 B   ---   --   ---xx   flac  0.5711  gd79-12-10d2t05.flac
     8:33.26       90554396 B   ---   --   ---xx   flac  0.6079  gd79-12-10d2t06.flac
     7:46.46       82310636 B   ---   --   ---xx   flac  0.5509  gd79-12-10d2t07.flac
     2:17.14       24199772 B   ---   --   ---xx   flac  0.5386  gd79-12-10d3t01.flac
     9:27.33      100096460 B   ---   --   ---xx   flac  0.5833  gd79-12-10d3t02.flac
     4:10.41       44196476 B   ---   --   ---xx   flac  0.6451  gd79-12-10d3t03.flac
     5:33.27       58804748 B   ---   --   ---xx   flac  0.5708  gd79-12-10d3t04.flac
   157:19.63     1665188700 B                            0.5560  (21 files)
Show Checksums
ffp
gd79-12-10d1t01.flac:22d94202b28addfbbeebb9f61227ea47
gd79-12-10d1t02.flac:677e0e174ac355ad1242a618fd655ad3
gd79-12-10d1t03.flac:89a9137ff439ad565e514da3fb9b33f0
gd79-12-10d1t04.flac:2b921cee792853ba0f624fc38403c87b
gd79-12-10d1t05.flac:2d61bddfcf389e70b50ef50892b92ad8
gd79-12-10d1t06.flac:b071e0d3fbc4863d7f8cc2e47e9a66ea
gd79-12-10d1t07.flac:1ba047f6f4395855a2a868154b25b4c4
gd79-12-10d1t08.flac:142beeea5036a1cbad1b788c1b353cb7
gd79-12-10d1t09.flac:dd92429426ba1daa3d8a6d8a3996d65f
gd79-12-10d1t10.flac:262840aad4c93bc25cd0f849e0df1599
gd79-12-10d2t01.flac:0d1aef69a2af591541b6f6be7099b4d0
gd79-12-10d2t02.flac:772bfb55b775fb1074948b8eba1257dc
gd79-12-10d2t03.flac:5d50745130073ed297e581e4d28b7448
gd79-12-10d2t04.flac:a549adbc152daec92107397d6cc0d05c
gd79-12-10d2t05.flac:8b872aeb82b2d746dfaea23c7c4fc1eb
gd79-12-10d2t06.flac:6a40fc59c670826f5c2ccf76644c5205
gd79-12-10d2t07.flac:f4ce2ac3a25851680f20d579f7854180
gd79-12-10d3t01.flac:202d334d2b24499d2f9dc9421a15b079
gd79-12-10d3t02.flac:32704a1733ca6cc594b4b0f02198dbf0
gd79-12-10d3t03.flac:ff3047f57e76361048cfe90f2e5611d7
gd79-12-10d3t04.flac:b4bd9e70ca94d4d5829bfa88985720eb
orig-flac-replaygain-md5
2a7086517c801e3b78c2e0e2b3381475 *gd79-12-10d1t01.flac
a060fd7e1d086333836ce26b1b9ea59c *gd79-12-10d1t02.flac
1d5528024b912543a173b86a7aa96bd9 *gd79-12-10d1t03.flac
9dac7ae709e4dd43dc9da82597ead619 *gd79-12-10d1t04.flac
9450b16180b9a2240d2f5ba2741f6e26 *gd79-12-10d1t05.flac
8f3553e676e591e13e254ec424bcdf99 *gd79-12-10d1t06.flac
76a7c8ed5852afef18d48f780f9b9546 *gd79-12-10d1t07.flac
e4d4f469662ecb3be8048dd1d0fcd4b1 *gd79-12-10d1t08.flac
e0d098fd302b2811e68060ffcc2c3db3 *gd79-12-10d1t09.flac
fc3ee6fe376e0932db37be0f3c3056a1 *gd79-12-10d1t10.flac
92aaa7dbedd0ac9e70ae88cbf1184206 *gd79-12-10d2t01.flac
33efcc3afead8009a57641b9822861ad *gd79-12-10d2t02.flac
2129fc31fe247830a37605f1986f95d0 *gd79-12-10d2t03.flac
f5d33cf8717ad0334a038b080531a057 *gd79-12-10d2t04.flac
4982d938b1b3d46db019b41e1633984b *gd79-12-10d2t05.flac
fe0abfe3176ebdc133d0cc85e03f68f7 *gd79-12-10d2t06.flac
48e39d1a8ba7d285c2a853985024129e *gd79-12-10d2t07.flac
f70598c7948e5e9a78e7c6d3d78a5c7a *gd79-12-10d3t01.flac
80cf0f0655bb55e7bfa9a792c30edfa3 *gd79-12-10d3t02.flac
e6f7660fd37c933abe44fafd26ee302e *gd79-12-10d3t03.flac
96bdad51d369a8eb986cdd39424c7d4c *gd79-12-10d3t04.flac
flac-md5
a67d035bff83f4da8804bd69054242a1 *gd79-12-10d1t01.flac
1f3a25d704f115dfd0c7ba579847edd6 *gd79-12-10d1t02.flac
5c432d290255d2f588cfc90d697247b4 *gd79-12-10d1t03.flac
bb7eb2d96e61c999caa2538584ff178c *gd79-12-10d1t04.flac
7d2054df1b5402d1bb3789f12f81f1d6 *gd79-12-10d1t05.flac
7231ae705d9a326beb5863428f187c0e *gd79-12-10d1t06.flac
573eb1b717f9b8395482e8bcefbad938 *gd79-12-10d1t07.flac
d13b5789b19028f41a16443e2132c573 *gd79-12-10d1t08.flac
00eb90e708ca09533a32b161dc0aff37 *gd79-12-10d1t09.flac
59d1d028a26434efe20cb64d86ea2c35 *gd79-12-10d1t10.flac
d2a97d06a841a2b8226b4f23b5ca4523 *gd79-12-10d2t01.flac
a87f3ce7b7c5f57601ded56b79871a8a *gd79-12-10d2t02.flac
0a026c74576b274104d3813b21f4ebc7 *gd79-12-10d2t03.flac
a68ab152539640bffe3a70a00863184f *gd79-12-10d2t04.flac
138a492309743a96443dd1f8a70af242 *gd79-12-10d2t05.flac
b9625d2f91ee3264b61116edf4e3f2ae *gd79-12-10d2t06.flac
78271c583ffa858ca54b29ad1ecdf4d0 *gd79-12-10d2t07.flac
bb07886d199c2d9938de3626d5f6743e *gd79-12-10d3t01.flac
49f7606739ffcfcb0ab7b4f799188250 *gd79-12-10d3t02.flac
769dea859087b0e3962f136429d36eb2 *gd79-12-10d3t03.flac
9839c79feeca9bd9838cd1d626c7e104 *gd79-12-10d3t04.flac

Comments
Add Comment
Other Sources (comments)
SBD> Cm> (set 1 = Reel, set... (2) flac16; AUD of... (0) flac16; Source:... (0) flac16; Recording by... (1) flac16; 2 Source... (0) flac16; Recorded By... (0)
Date User Comment
11/09/2006 btet This was inadvertently FLAC encoded with replaygain. If you're playing the FLACs in Winamp you should reFLAC the files without the replaygain option. If you're burning extracted .wavs to CD, these are unaffected and no reFLACing is necessary. I apologize for the error.