Browse Collections Artists Sources   Search Dates

Add Show    List Management    Help


Grateful Dead 08/30/80
The Spectrum, Philadelphia, PA
Comments Add Comment    Source Collectors    Add to Collection    Add to Want List    History
Source # 34939 Other Sources
Entered by Matt Vernon
Checksums flac-md5 , ffp , orig-flac-replaygain-md5
Disc Counts 2 / 3
Media Size
Date Circulated
Date Added
06/07/2006
06/07/2006
Source Summary flac16; Soundboard shn id 15408 and fixed version of shn id 8875 via Bill Tetzeli. Note Added 11/9/08: Reflac version w/o replay gain added. See info file for details 
  Archive
Source Information - Download Text | Download Zip
Grateful Dead
The Spectrum
Philadelphia, PA
August 30, 1980
------------------------------------------------------------------------
Fix of shnid 8775 with shnid 15408 added to the beginning

This is the complete 8/30/80 show, combining two sources. There was an
overlap between the CDs 2 and 3, but there were fades on it so even
though the splice points were easily matched, without knowing exactly
where the fades began and ended I could only make a guess at reversing
them. Sorry, I did my best. Anyhow, it sounds pretty smooth and I
think most people will have a hard time hearing where the splice was.

Bill Tetzeli ([email protected])
9:50 AM 4/25/2006
------------------------------------------------------------------------
When this source was first circulated, the flac files contained
REPLAYGAIN tags. The wav files compressed inside the flac files are
fine, but if you listen to the flac files themselves using a player
like WinAMP, these tags cause all the tracks to be played at the same
volume. That's not good for concerts where some tracks are supposed to
be louder than others.

There's a new version of this source available. It has exactly the
same wav files; it's just the flac wrapper that's different, the
wrapper doesn't have REPLAYGAIN set anymore. The new version has the
same ffp file (since the wav's are the same), but a new md5 file
(since the flac files are different). The md5 file for the old source
is called "orig-flac-replaygain-md5"; the md5 file for the good new
source is called "flac-md5". If you have a source for this that
matches the ffp, you can create the new source by unflac'ing the old
source and then recompressing at flac level 8 using the flac command
line tool or the flac frontend.

From now on, only the new version of the source should be circulated.

SteveSw - Nov, 2008
------------------------------------------------------------------------

CD 1: SBD>?>CD
CDs 2 and 3: SBD>MR>DAT>DAT Clone>CDR

CD 1 (1st Set)

1. Stranger
2. Peggy-O
3. Cassidy
4. Friend Of The Devil
5. Minglewood
6. Rain And Snow>
7. Looks Like Rain
8. Easy To Love You
9. Althea
10. Jack Straw

CD 2 (2nd Set)

1. Scarlet>
2. Fire
3. C C Rider
4. Ramble On Rose
5. Estimated>
6. Eyes>
7. Drums>
8. Space>

CD 3

1. Space>
2. Not Fade>
3. Black Peter>
4. Sugar Magnolia>
5. Sunshine Daydream

Encore
6. One More Saturday Night


==========

    length     expanded size    cdr  WAVE problems  fmt   ratio  filename
     8:42.24       92137292 B   ---   --   ---xx   flac  0.4949  gd80-08-30d1t01.flac
     6:32.35       69231164 B   ---   --   ---xx   flac  0.4797  gd80-08-30d1t02.flac
     5:14.00       55389644 B   ---   --   ---xx   flac  0.5177  gd80-08-30d1t03.flac
     9:25.14       99698972 B   ---   --   ---xx   flac  0.5057  gd80-08-30d1t04.flac
     7:02.23       74494940 B   ---   --   ---xx   flac  0.5318  gd80-08-30d1t05.flac
     6:31.74       69146492 B   ---   --   ---xx   flac  0.5170  gd80-08-30d1t06.flac
     8:06.17       85770428 B   ---   --   ---xx   flac  0.4892  gd80-08-30d1t07.flac
     4:59.25       52802444 B   ---   --   ---xx   flac  0.4918  gd80-08-30d1t08.flac
     8:30.04       89973452 B   ---   --   ---xx   flac  0.4954  gd80-08-30d1t09.flac
     6:21.09       67229612 B   ---   --   ---xx   flac  0.5303  gd80-08-30d1t10.flac
     9:39.32      102210908 B   ---   --   ---xx   flac  0.5568  gd80-08-30d2t01.flac
    10:15.30      108556604 B   ---   --   ---xx   flac  0.5635  gd80-08-30d2t02.flac
     6:52.17       72716828 B   ---   --   ---xx   flac  0.5364  gd80-08-30d2t03.flac
     8:19.62       88169468 B   ---   --   ---xx   flac  0.5429  gd80-08-30d2t04.flac
    11:58.40      126749324 B   ---   --   ---xx   flac  0.5560  gd80-08-30d2t05.flac
    12:10.04      128781452 B   ---   --   ---xx   flac  0.5627  gd80-08-30d2t06.flac
     9:57.49      105426092 B   ---   --   ---xx   flac  0.4763  gd80-08-30d2t07.flac
     2:14.50       23755244 B   ---   --   ---xx   flac  0.4588  gd80-08-30d2t08.flac
     2:27.13       25961420 B   ---   --   ---xx   flac  0.4499  gd80-08-30d3t01.flac
     8:02.32       85100108 B   ---   --   ---xx   flac  0.5560  gd80-08-30d3t02.flac
     8:54.42       94296428 B   ---   --   ---xx   flac  0.5105  gd80-08-30d3t03.flac
     5:35.02       59098748 B   ---   --   ---xx   flac  0.5911  gd80-08-30d3t04.flac
     2:50.16       30025676 B   ---   --   ---xx   flac  0.6034  gd80-08-30d3t05.flac
     4:42.39       49836572 B   ---   --   ---xx   flac  0.6046  gd80-08-30d3t06.flac
   175:24.53     1856559312 B                            0.5283  (24 files)
Show Checksums
flac-md5
6d7a8c9f65d203e05b75cf47de5f3083 *gd80-08-30d1t01.flac
533ed269da2d37f39eea0acc227e2995 *gd80-08-30d1t02.flac
86b14d174e13c506081f68f97361eb58 *gd80-08-30d1t03.flac
b80a4f3338c45883a1f2950cca20c6e9 *gd80-08-30d1t04.flac
699992d05c8a1e6a236031314fe0b485 *gd80-08-30d1t05.flac
8099a639f369a6b5ff9647f055cbeb69 *gd80-08-30d1t06.flac
69b803bfb78b70716ac1b40b87c63335 *gd80-08-30d1t07.flac
254f849e26440d820e37ba36d9ef41a5 *gd80-08-30d1t08.flac
e861815dab7104d476591f2c0cd726e0 *gd80-08-30d1t09.flac
9dbc52924b6dbcbc0506da7f94653b72 *gd80-08-30d1t10.flac
b422018fef5c987e968e4f71b8a11fda *gd80-08-30d2t01.flac
e6b488148ce15d2592ade30ff13a1aa7 *gd80-08-30d2t02.flac
5b43be0fe5e770b6cce990eba1fa7a7c *gd80-08-30d2t03.flac
b244f9d6f80f36ff439cf09691d3af6d *gd80-08-30d2t04.flac
078fb705aab0b7eb66e761163ffb18ae *gd80-08-30d2t05.flac
fdc4dabd0e0d7bdfe619908301cc43c8 *gd80-08-30d2t06.flac
5dab383459e16bd52698791636136bbd *gd80-08-30d2t07.flac
73204ec17b4bdb08823d2e11612224fe *gd80-08-30d2t08.flac
fe936e8aba7c6d591cb0d6595f005ab3 *gd80-08-30d3t01.flac
72fd52fbefd45b97ed81ee32014b68e2 *gd80-08-30d3t02.flac
2f6704ef897f6c1585b8db61d929f3a7 *gd80-08-30d3t03.flac
a78a9f37490ef0b382f914a02f25d796 *gd80-08-30d3t04.flac
5aeac834a04c608c1ef9c542defb7c65 *gd80-08-30d3t05.flac
0171582b703f90636dc185065d344e1c *gd80-08-30d3t06.flac
ffp
gd80-08-30d1t01.flac:e74272596c5e0ab153426b5c548cb830
gd80-08-30d1t02.flac:5b5d9ddb6bd00adffaa3f78aeba6661b
gd80-08-30d1t03.flac:20054587d050c5d1f3d476c61d7967f5
gd80-08-30d1t04.flac:c0ac878139da815b09ad7bca997419e2
gd80-08-30d1t05.flac:884c7a2afef1a765c474afef9bf376d0
gd80-08-30d1t06.flac:e33e620e46614592bbc0a261d917e03a
gd80-08-30d1t07.flac:ccc9c239ce40010503f9b1e5b707f12a
gd80-08-30d1t08.flac:c4d3806cd1f2432909c1d5dd6047afa1
gd80-08-30d1t09.flac:8cdaa105970fd0690b189eb9144fbe2b
gd80-08-30d1t10.flac:5743bd76fb0adc1be7dc34f76f26604c
gd80-08-30d2t01.flac:fcf326f0999149f7902008607b81ac64
gd80-08-30d2t02.flac:c38b7d8d3a977579268de91abb8c4638
gd80-08-30d2t03.flac:87d308e45157c3b4e002d803c425e29f
gd80-08-30d2t04.flac:0fece20f7f0c463c771441c82f4a4aa0
gd80-08-30d2t05.flac:c4cfbcfc5cc00b9740cbde36df93f021
gd80-08-30d2t06.flac:6270c6a01c4cb53af3b40c1225b3669d
gd80-08-30d2t07.flac:86a7a44aba08f5666bf02d651c9536f1
gd80-08-30d2t08.flac:ba37fe0eb5dc22a77537a32c0562bee1
gd80-08-30d3t01.flac:a364c43b37348a92bb39fac554ace81b
gd80-08-30d3t02.flac:393dcf7e7bcc43e371431d281f6133c1
gd80-08-30d3t03.flac:0d8785f9f1647c81d57a0de50ae2bfd6
gd80-08-30d3t04.flac:e872e337d6046aa6e6c5615bc7f5b252
gd80-08-30d3t05.flac:4cbad7fec106a6b8dbaaaa54f3cabf6c
gd80-08-30d3t06.flac:e53dc3e904d04e196617ac4065df9f93
orig-flac-replaygain-md5
7f2983ff0fd8cd17d8150b14546f24c3 *gd80-08-30d1t01.flac
7cd8f056d0f73e66ae637ffc0bead956 *gd80-08-30d1t02.flac
0d25f6d49521f1918bab283f1d685ac1 *gd80-08-30d1t03.flac
21ce287a33d876f54bf12334ae16ad66 *gd80-08-30d1t04.flac
2d849abf77d55216224374611ded64cb *gd80-08-30d1t05.flac
d44c890461ea0f581f3ccc417c764daf *gd80-08-30d1t06.flac
b78164254bc7855bf641f5d4d0e33104 *gd80-08-30d1t07.flac
ece40b691310753f2875ba0ddd041ffc *gd80-08-30d1t08.flac
4e0d395ff53f4ff27016c49c1d5ed674 *gd80-08-30d1t09.flac
09f8d6db6d6649d4a8c9bc9a341544bf *gd80-08-30d1t10.flac
6b0ffcc881810e7020f0f866117a43c1 *gd80-08-30d2t01.flac
54d3a0aa6310d02b916746580c687a62 *gd80-08-30d2t02.flac
6192c938b5a8ef53124a6422a2e2a1b1 *gd80-08-30d2t03.flac
2ded58695586320ccc949687e6e38233 *gd80-08-30d2t04.flac
3a8eeed1deb827e8027eee055b8514db *gd80-08-30d2t05.flac
7376d884b874a43ac6f277d6fbd35409 *gd80-08-30d2t06.flac
838edfb0bfaeeed6ad0627276006c9bb *gd80-08-30d2t07.flac
7f4d8d0de82c9a8cdebd6e92c792c480 *gd80-08-30d2t08.flac
8dd7218280c9de670b3a0efb184ffef0 *gd80-08-30d3t01.flac
edcdad569643297f51352439a7a72df1 *gd80-08-30d3t02.flac
20a25a6b011ef532bf25f9b361e2c390 *gd80-08-30d3t03.flac
cb727fb6b3f6d7b57833bc6474837698 *gd80-08-30d3t04.flac
2afd66944803c4ecd0048ac009bc0d05 *gd80-08-30d3t05.flac
7d3cddd1768d48fb8039ba972987333d *gd80-08-30d3t06.flac

Comments
Add Comment
Other Sources (comments)
2nd set only;... (3) 1st Set Only; SBD>?>CD;... (0) Recording by Jim Wise:... (0) flac16; Recording... (0) flac16; Nakamichi... (0) flac16; Set 1... (1) flac16; Recording... (0) flac16; First Set... (0)
Date User Comment
11/04/2006 btet Per Charlie Miller: "2nd set is SBD>Cassette Master>Sonic Solutions>CD."
11/09/2006 btet This was inadvertently FLAC encoded with replaygain. If you're playing the FLACs in Winamp you should reFLAC the files without the replaygain option. If you're burning extracted .wavs to CD, these are unaffected and no reFLACing is necessary. I apologize for the error.
01/16/2008 charlie miller why is sugar magnolia split into 2 tracks?