Browse Collections Artists Sources   Search Dates

Add Show    List Management    Help


Grateful Dead 12/31/83
San Francisco Civic Auditorium, San Francisco, CA
Comments Add Comment    Source Collectors    Add to Collection    Add to Want List    History
Source # 34968 Other Sources
Entered by Matt Vernon
Checksums flac-md5 , ffp
Disc Counts 2 / 3
Media Size
Date Circulated
Date Added
06/09/2006
06/10/2006
Source Summary flac16; FOB Sennheiser 421s > Sony D5 > TDK MA90 MACs. Recorded by R.Lipton using B.Koucky's deck/blanks. Transfer: MAC playback on Nakamichi DR-2 > Presonus Firebox (stereo preamp and 24 bit/96 A/D) > firewire/2 GHz PC/WinXP > recorded as 24 bit/96 KHz WAV & pauses/flips were smoothed with crossfades, Wavelab 5 > rendered to 16 bit/44.1 KHz WAV, Waves L3 Multimaximizer > CDWAV 1.9 (tracking) > FLAC (level 8). Transfer/mastering/encoding/initial torrenting at bt.etree.org via C.Ladner 
  Archive
Source Information - Download Text | Download Zip
Grateful Dead
12/31/1983
San Francisco Civic Auditorium
San Francisco, CA
  
Source:  FOB Sennheiser 421s > Sony D5 > TDK MA90 MACs.  Recorded by R.Lipton using B.Koucky's deck/blanks.
Transfer:  MAC playback on Nakamichi DR-2 > Presonus Firebox (stereo preamp and 24 bit/96 A/D) > firewire/2 GHz PC/WinXP > recorded as 24 bit/96 KHz WAV & pauses/flips were smoothed with crossfades, Wavelab 5 > rendered to 16 bit/44.1 KHz WAV, Waves L3 Multimaximizer > CDWAV 1.9 (tracking) > FLAC (level 8).  
Transfer/mastering/encoding/initial torrenting at bt.etree.org via C.Ladner, June 2006.

Disc I - Set I
01  crowd
02  Jack Straw
03  Peggy-O
04  Minglewood Blues
05  Candyman
06  Brother Esau
07  Tennesee Jed
08  Hell in a Bucket >
09  Don't Ease Me In
Total time:  54:28

Disc II - Set II
01  crowd > Tsaichovsky's 1812 Overture >
02  Sugar Magnolia >
03  Touch Of Grey
04  Estimated Prophet >
05  Eyes Of The World >
06  Drums >
Total time:  56:01

Disc III - Set II (cont'd)
01  Space ->
02  Throwing Stones >
03  Not Fade Away
04  Brokedown Palace
Set III (with Rick Danko and Maria Muldaur)
05  Big Boss Man >
06  Iko-Iko
07  Midnight Hour
08  Goodnight Irene
Total time:  57:22

Comments:
Great sounding closeup FOB master audience cassette with minimal closeup crowd intrusiveness.  Thanks to Bill for borrowing me his masters.

Flaws:
d1t07 (Tennesee Jed) completely missing - spliced from CM's SBD source.
d3t04 (Not Fade Away) - 7 second splice from SBD source from 06:15-06:22.

SHNTOOL LEN OUTPUT:
    length     expanded size   cdr  WAVE problems filename
     0:25.15        4445324    ---   --   ---xx   gd1983-12-31d1t01.flac
     6:59.17       73951628    ---   --   ---xx   gd1983-12-31d1t02.flac
     8:44.68       92593580    ---   --   ---xx   gd1983-12-31d1t03.flac
     9:09.20       96890684    ---   --   ---xx   gd1983-12-31d1t04.flac
     6:45.38       71531420    ---   --   ---xx   gd1983-12-31d1t05.flac
     4:47.72       50796188    ---   --   ---xx   gd1983-12-31d1t06.flac
     8:23.67       88886828    ---   --   ---xx   gd1983-12-31d1t07.flac
     5:48.12       61415468    ---   --   ---xx   gd1983-12-31d1t08.flac
     3:23.69       35971532    ---   --   ---xx   gd1983-12-31d1t09.flac
     3:57.05       41818604    ---   --   ---xx   gd1983-12-31d2t01.flac
     6:49.27       72211148    ---   --   ---xx   gd1983-12-31d2t02.flac
     7:08.09       75520412    ---   --   ---xx   gd1983-12-31d2t03.flac
    13:41.40      144918524    ---   --   ---xx   gd1983-12-31d2t04.flac
    11:17.11      119448716    ---   --   ---xx   gd1983-12-31d2t05.flac
    13:08.12      139031468    ---   --   ---xx   gd1983-12-31d2t06.flac
     9:11.04       97205852    ---   --   ---xx   gd1983-12-31d3t01.flac
     7:51.03       83091500    ---   --   ---xx   gd1983-12-31d3t02.flac
    11:48.36      124975916    ---   --   ---xx   gd1983-12-31d3t03.flac
     6:08.21       64964636    ---   --   ---xx   gd1983-12-31d3t04.flac
     4:19.36       45772316    ---   --   ---xx   gd1983-12-31d3t05.flac
     6:30.59       68934812    ---   --   ---xx   gd1983-12-31d3t06.flac
     6:07.52       64861148    ---   --   ---xx   gd1983-12-31d3t07.flac
     5:25.59       57468812    ---   --   ---xx   gd1983-12-31d3t08.flac
   167:52.02     1776706516 B                     (totals for 23 files, 0.6199 overall compression ratio)
Show Checksums
flac-md5
60699a17de1b035e47ebefef1a041d2a *gd1983-12-31d1t01.flac
a32c71f9bc778deae1b8111ca5aac2ff *gd1983-12-31d1t02.flac
5b183e42a77468b1dfaf131b7e2bbffe *gd1983-12-31d1t03.flac
c782a0c0744be5ef3c5048e62813f0f9 *gd1983-12-31d1t04.flac
016f70b3a57beb2be4bf4db3a0ac06bb *gd1983-12-31d1t05.flac
74a71e572f808caa328bedecaed02e72 *gd1983-12-31d1t06.flac
b841d4bdd8d4fdd1b4301f93857b829e *gd1983-12-31d1t07.flac
a68220f36cc51438d8098de8193388d0 *gd1983-12-31d1t08.flac
5711fcf0d72deb8d3f9af09cd4833ab0 *gd1983-12-31d1t09.flac
3fbb1c4e32350a2c47afa188042e432c *gd1983-12-31d2t01.flac
b55ebab0cf8a12b594c2b8868ab788b6 *gd1983-12-31d2t02.flac
b5a258e8295c2a7ebb7e12bd09bf2db0 *gd1983-12-31d2t03.flac
c6ff3f34e755e6462eaf178b879c8f22 *gd1983-12-31d2t04.flac
b35c2c564c639e4bfedac35ede17423d *gd1983-12-31d2t05.flac
1054b26c0d1024e7a9abd8abb7d01c68 *gd1983-12-31d2t06.flac
adc3c7255a98182413e54c3775071567 *gd1983-12-31d3t01.flac
2e34137673ab27521c7250265b124807 *gd1983-12-31d3t02.flac
2ec9ee5e8190a7bf8374818827f2424d *gd1983-12-31d3t03.flac
437a3b71d318c670e63f467adace34f2 *gd1983-12-31d3t04.flac
92357eeaef62696d98ab12a7d8a66fc5 *gd1983-12-31d3t05.flac
c86527842aa6f12fc30d7606dbf2b91a *gd1983-12-31d3t06.flac
49d6f1c46f71ee064b963188e4cc2ca7 *gd1983-12-31d3t07.flac
501c28aa0bc4e8c63be424bf6f3711d1 *gd1983-12-31d3t08.flac
ffp
gd1983-12-31d1t01.flac:354bb2f9b0cb2639a366839294f5e875
gd1983-12-31d1t02.flac:0079586f9acad21e9bf6675b602121b5
gd1983-12-31d1t03.flac:6504728f184debc24c2a448d40f9ff83
gd1983-12-31d1t04.flac:ba3c4c0e38d4a48f13f718f80e4d1c6d
gd1983-12-31d1t05.flac:4f390a5272647b52cf21f00854c19ae9
gd1983-12-31d1t06.flac:3b925f57bb42f14d84fe014b910390da
gd1983-12-31d1t07.flac:4a410d77240dcd1d1d9bee2141d72ce8
gd1983-12-31d1t08.flac:83612ea353294455552c335aac9c1b47
gd1983-12-31d1t09.flac:12043af3a10ce5a0835f7465176e7dc1
gd1983-12-31d2t01.flac:5e2726338c97ca256715075c3fd3b31c
gd1983-12-31d2t02.flac:3e2fa6e440bfd400af41fdbddec57e1c
gd1983-12-31d2t03.flac:d4db401298f499b75432c61e6c325426
gd1983-12-31d2t04.flac:5056672f1751604bec904a7c4ce0cf29
gd1983-12-31d2t05.flac:7bb8bb9f5e21f849e04a84f5d972c999
gd1983-12-31d2t06.flac:e0e4642827845106689c73962b7c6209
gd1983-12-31d3t01.flac:4a193117c89b5a50daff24cc16a38721
gd1983-12-31d3t02.flac:b565009ea5cb3c4649db32066104202a
gd1983-12-31d3t03.flac:3e8ce51de5179b6d14f0473b407b9960
gd1983-12-31d3t04.flac:25d3382383256fea3bb5e62241007824
gd1983-12-31d3t05.flac:e613addecef7adf288e03d3f09a8d731
gd1983-12-31d3t06.flac:4235e57d45791835db742a92d84265d8
gd1983-12-31d3t07.flac:01bcdaa0fe482dc6ddfe02a101737803
gd1983-12-31d3t08.flac:f9f667861000a2cfbb40303fdaa91148

Comments
Add Comment
Other Sources (comments)
sbd> mr> dats> wav> shn... (0) SBD -> Rm -> Dat -> M-Audio... (0) (Bertha Remaster)... (0) 3 Beyer M160 FOB> Sony... (0) flac16; SBD ->... (4) flac16; Source:... (0) flac16; Set 3 only -... (0) flac16; Recording... (0) flac16; Source: 2... (1) flac16; Matrix 3... (0) flac16; Master... (0) flac24; Master... (0) flac16; source: aud... (0) flac24; source: aud... (0)
Date User Comment