Browse Collections Artists Sources   Search Dates

Add Show    List Management    Help


Grateful Dead 08/12/79
Red Rocks Ampitheatre, Morrison, CO
Comments Add Comment    Source Collectors    Add to Collection    Add to Want List    History
Source # 35038 Other Sources
Entered by Matt Vernon
Checksums flac-md5 , ffp , orig-flac-replaygain-md5
Disc Counts 2 / 3
Media Size
Date Circulated
Date Added
06/06/2006
06/13/2006
Source Summary flac16; Seamless fix of soundboard shn id 9288 - MSC>R>PCM>CD>EAC>SHN>WAV>FLAC by Bil Tetzeli. Note Added 11/9/08: Reflac version w/o replay gain added. See info file for details 
  Archive
Source Information - Download Text | Download Zip
Grateful Dead
8/12/79
Red Rocks Amphitheatre
Morrison, Colorado
------------------------------------------------------------------------
Fix of shnid 9288

Silence between end of CD 2 and beginning of CD 3 was eliminated for
seamless transition between the two.  Resulting SBEs were cleaned up
with shntool.  SHN files were converted to FLAC.  Thanks to Scott
Clugston for keeping all the music intact, allowing this fix to be
made.

Bill Tetzeli ([email protected])
1:31 PM 5/13/2006
------------------------------------------------------------------------
When this source was first circulated, the flac files contained
REPLAYGAIN tags. The wav files compressed inside the flac files are
fine, but if you listen to the flac files themselves using a player
like WinAMP, these tags cause all the tracks to be played at the same
volume. That's not good for concerts where some tracks are supposed to
be louder than others.

There's a new version of this source available. It has exactly the
same wav files; it's just the flac wrapper that's different, the
wrapper doesn't have REPLAYGAIN set anymore. The new version has the
same ffp file (since the wav's are the same), but a new md5 file
(since the flac files are different). The md5 file for the old source
is called "orig-flac-replaygain-md5"; the md5 file for the good new
source is called "flac-md5". If you have a source for this that
matches the ffp, you can create the new source by unflac'ing the old
source and then recompressing at flac level 8 using the flac command
line tool or the flac frontend.

From now on, only the new version of the source should be circulated.

SteveSw - Nov, 2008
------------------------------------------------------------------------

Master Soundboard Cassette > Reel to Reel > PCM > CDR

CD Mastering by Scott Clugston
EAC'ed / SHN'ed by Scott Clugston
4/15/02

Disc 1
1st Set
1. Promised // Land
2. TLEO
3. Mama Tried>
4. Mexicali Blues
5. Peggy O
6. Lazy Lightning>
7. Supplication
8. Brown Eyed// Women
9. LLR
10.Althea
11.Passenger

Disc 2
2nd Set
1. China Cat Sunflower>
2. I Know You Rider
3. Lost Sailor
4. Don't Ease Me In
5. Estimated Prophet>
6. Eyes of the World>
7. Drums>

Disc 3
1. Space>
2. NFA>
3. Black Peter>
4. A & A
Encore
//US Blues


==========

    length     expanded size    cdr  WAVE problems  fmt   ratio  filename
     4:22.71       46383836 B   ---   --   ---xx   flac  0.5709  gd79-08-12d1t01.flac
     6:51.01       72502796 B   ---   --   ---xx   flac  0.5406  gd79-08-12d1t02.flac
     2:31.11       26662316 B   ---   --   ---xx   flac  0.5701  gd79-08-12d1t03.flac
     4:30.12       47656268 B   ---   --   ---xx   flac  0.5652  gd79-08-12d1t04.flac
     8:19.43       88124780 B   ---   --   ---xx   flac  0.5439  gd79-08-12d1t05.flac
     3:22.18       35675180 B   ---   --   ---xx   flac  0.5891  gd79-08-12d1t06.flac
     4:52.54       51635852 B   ---   --   ---xx   flac  0.5811  gd79-08-12d1t07.flac
     4:11.54       44403452 B   ---   --   ---xx   flac  0.5630  gd79-08-12d1t08.flac
     7:35.24       80318492 B   ---   --   ---xx   flac  0.5465  gd79-08-12d1t09.flac
     7:36.07       80454908 B   ---   --   ---xx   flac  0.5698  gd79-08-12d1t10.flac
     4:45.35       50355980 B   -b-   --   ---xx   flac  0.6082  gd79-08-12d1t11.flac
     4:45.50       50391644 B   ---   --   ---xx   flac  0.5630  gd79-08-12d2t01.flac
     6:41.06       70750556 B   ---   --   ---xx   flac  0.5765  gd79-08-12d2t02.flac
     6:24.56       67869356 B   ---   --   ---xx   flac  0.5408  gd79-08-12d2t03.flac
     3:27.21       36564236 B   ---   --   ---xx   flac  0.5596  gd79-08-12d2t04.flac
    12:52.01      136183196 B   ---   --   ---xx   flac  0.5592  gd79-08-12d2t05.flac
    19:23.17      205193228 B   ---   --   ---xx   flac  0.5767  gd79-08-12d2t06.flac
    11:20.03      119959100 B   ---   --   ---xx   flac  0.5254  gd79-08-12d2t07.flac
     2:40.42       28322828 B   ---   --   ---xx   flac  0.4723  gd79-08-12d3t01.flac
    13:26.27      142241948 B   ---   --   ---xx   flac  0.5429  gd79-08-12d3t02.flac
     9:45.49      103309292 B   ---   --   ---xx   flac  0.5216  gd79-08-12d3t03.flac
     7:36.30       80509004 B   ---   --   ---xx   flac  0.5772  gd79-08-12d3t04.flac
     5:00.06       52934156 B   ---   --   ---xx   flac  0.5528  gd79-08-12d3t05.flac
   162:21.38     1718402404 B                            0.5564  (23 files)
Show Checksums
flac-md5
b71415a76a1f5738c7c257a91e37b685 *gd79-08-12d1t01.flac
932017044a9b472c6150a9551a979cb2 *gd79-08-12d1t02.flac
4f12473dae96bbc5190bdc9aeb4ff0f0 *gd79-08-12d1t03.flac
10f1b0a73ec4c2e2fcb57c0c19448328 *gd79-08-12d1t04.flac
db71da70f6c08928b932e8ce105d91c6 *gd79-08-12d1t05.flac
c80ab101bc0efbce83698912bf3f030b *gd79-08-12d1t06.flac
efec889f3f141617e615a26deca73104 *gd79-08-12d1t07.flac
e4e8c21edf56cbb6e2c5915096afd5f7 *gd79-08-12d1t08.flac
46d20170e37d99527c6024787fc8a37c *gd79-08-12d1t09.flac
ffab06274fd76eaa56b53f593b5ab265 *gd79-08-12d1t10.flac
1b38dbc7d6296277708a029c45f7e24b *gd79-08-12d1t11.flac
1c5e04bcf2df0190c5ec163177903286 *gd79-08-12d2t01.flac
abc711bb4a637fbf6ff1b6af3c367da2 *gd79-08-12d2t02.flac
b199c08619aa1fb4bfc143f22b3f241b *gd79-08-12d2t03.flac
75226531b692238df7cf669baf4519e4 *gd79-08-12d2t04.flac
847f62082983fe73d28d5424e1fe41dd *gd79-08-12d2t05.flac
0a6c1dfd00359241e5123f936a24a135 *gd79-08-12d2t06.flac
4e040f68adcb70f8ac4370f568bda5d5 *gd79-08-12d2t07.flac
e6699a168948b2c3fc14b97a54149ead *gd79-08-12d3t01.flac
029c75eda1bf6e98f0315d170e710b19 *gd79-08-12d3t02.flac
a0361c8fd5a934f8fc0df9f2ef191f97 *gd79-08-12d3t03.flac
d7d8a81f7f0af62428bc1bb846a55df9 *gd79-08-12d3t04.flac
69f0ba1c69e086b941085fbb5b115fd7 *gd79-08-12d3t05.flac
ffp
gd79-08-12d1t01.flac:391dd6f4c12aa79b74fe97579d8564de
gd79-08-12d1t02.flac:2809d254434f3230b06e35c01e21c52d
gd79-08-12d1t03.flac:722394499f917639de581a7a9baca169
gd79-08-12d1t04.flac:a279da8f09dc321e4c280186b1cd3a39
gd79-08-12d1t05.flac:d752361719c4758adef1ea64ebaaebe4
gd79-08-12d1t06.flac:a93d060f9c5ab0cbfe2b24a4764116d6
gd79-08-12d1t07.flac:15d8932b50f1bda8d568b202265e3cae
gd79-08-12d1t08.flac:853c3be9e747bd631f120643a4683ad8
gd79-08-12d1t09.flac:638720b8c0ba961e412aa9e232bca99f
gd79-08-12d1t10.flac:059bc099130a1397f1e8f18f5686f2c3
gd79-08-12d1t11.flac:2257e6b8876784d1b525a172a9b4d019
gd79-08-12d2t01.flac:bbc24d3702723c541f887ec9a3d4bca9
gd79-08-12d2t02.flac:e0143140bf2740aa8f8ff74483093a87
gd79-08-12d2t03.flac:ef6e42277f9d4bc3c1697302d24c9f3f
gd79-08-12d2t04.flac:c3b87a8fbe1981c7f7186c0988dd882b
gd79-08-12d2t05.flac:eea40f6b60b932b6b9182c1aa752afc2
gd79-08-12d2t06.flac:6fd791f277eaf9b2674d01ab3b327efa
gd79-08-12d2t07.flac:f2ab611c2be1191616105307ddb659fb
gd79-08-12d3t01.flac:fe21cd42b32950851fb0b4343d39c1dc
gd79-08-12d3t02.flac:17a75519b81280152acba071e4bbcc18
gd79-08-12d3t03.flac:3a62440fa4dc30fb434840cbbcb9402d
gd79-08-12d3t04.flac:c3331ffa4bff3a881636c5a240ba0665
gd79-08-12d3t05.flac:afce52ad71110137faa0663b348a5323
orig-flac-replaygain-md5
5e5129e20f2aabd4519633dad9f33699 *gd79-08-12d1t01.flac
dd1c0bde4e24c6e6dbca4e107e7c9621 *gd79-08-12d1t02.flac
b5c993a2bfe94d6ce841e85abcc9572b *gd79-08-12d1t03.flac
72d45b8374f446b4b2d65ecb94d3592f *gd79-08-12d1t04.flac
0b0f6bfaf195d1c3026b602aaa0fdcdf *gd79-08-12d1t05.flac
eff63a09e1764014f7578a58e121fe6d *gd79-08-12d1t06.flac
1996c21bce63275a2051ed1aaefcb082 *gd79-08-12d1t07.flac
7e9686178e4361f1c42bc71c804d0415 *gd79-08-12d1t08.flac
4893c62fcc12882abd2a1e7aefb9f0d3 *gd79-08-12d1t09.flac
70015ff2fe34cd0b5850880590d4b8e4 *gd79-08-12d1t10.flac
75d0bb79c99199a197e742ce18154f04 *gd79-08-12d1t11.flac
4e3da9242eb68c96a4bebda4b99b596e *gd79-08-12d2t01.flac
c5291c701e4ab9ee2359f8d4a7f4f701 *gd79-08-12d2t02.flac
770102cf32bd50c3c1456df38d146d91 *gd79-08-12d2t03.flac
835cb9062ed60d90157a62a833a37207 *gd79-08-12d2t04.flac
818b5aa347d0ae72d64f22a219cac1f3 *gd79-08-12d2t05.flac
70f527a45835886690ad9489a73a6003 *gd79-08-12d2t06.flac
bd18c920ed2b5341345f60daf6454987 *gd79-08-12d2t07.flac
2559dbad50b27445c7f62addc59e928b *gd79-08-12d3t01.flac
0ab0272a6f120b60fa2bfee3a738dc05 *gd79-08-12d3t02.flac
ea1a83af8ba5cde5096f546161632498 *gd79-08-12d3t03.flac
a83a0e81555fae17f9880fa2b137ba42 *gd79-08-12d3t04.flac
d7b468149c64e9c7b60c9f52bd985593 *gd79-08-12d3t05.flac

Comments
Add Comment
Other Sources (comments)
Master Soundboard Cassette... (5) flac16; Master... (0) flac16; Analog... (0) flac16; Recording... (3)
Date User Comment
11/09/2006 btet This was inadvertently FLAC encoded with replaygain. If you're playing the FLACs in Winamp you should reFLAC the files without the replaygain option. If you're burning extracted .wavs to CD, these are unaffected and no reFLACing is necessary. I apologize for the error.
02/18/2009 germain There is no need to reflac this source. While the overall gain was upped just over 4dB, individual songs will remain in their correct audio relationships to each other if you set "Track Gain" as your media player's default.
02/18/2009 germain I should have said set your player's default to "Album Gain"
03/12/2018 [email protected] this is also mono