Browse Collections Artists Sources   Search Dates

Add Show    List Management    Help


Grateful Dead 07/07/87
Roanoke Civic Center, Roanoke, VA
Comments Add Comment    Source Collectors    Add to Collection    Add to Want List    History
Source # 35152 Other Sources
Entered by Matt Vernon
Checksums flac-md5 , ffp
Disc Counts 2 / 2
Media Size
Date Circulated
Date Added
06/20/2006
06/21/2006
Source Summary flac16; Source: Nakamichi 300s > Sony D5 > Maxell MX90 Master Cassettes. Taped by B.Koucky. Transfer: MAC playback on Nakamichi DR-2 > Presonus Firebox (stereo preamp and 24 bit/96 A/D) > firewire/2 GHz PC/WinXP > recorded as 24 bit/96 KHz WAV & pauses/flips were smoothed with crossfades, Wavelab 5 > rendered to 16 bit/44.1 KHz WAV, Waves L3 Multimaximizer > CDWAV 1.9 (tracking) > FLAC (level 8). Transfer/mastering/encoding/initial torrenting at bt.etree.org via C.Ladner, June 2006.  
  Archive
Source Information - Download Text | Download Zip
Grateful Dead
07/07/1987
Roanoke Civic Center
Roanoke, VA

Source:  Nakamichi 300s > Sony D5 > Maxell MX90 Master Cassettes.  
Taped by B.Koucky.
Transfer: MAC playback on Nakamichi DR-2 > Presonus Firebox (stereo preamp and 24 bit/96 A/D) > firewire/2 GHz PC/WinXP > recorded as 24 bit/96 KHz WAV & pauses/flips were smoothed with crossfades, Wavelab 5 > rendered to 16 bit/44.1 KHz WAV, Waves L3 Multimaximizer > CDWAV 1.9 (tracking) > FLAC (level 8).
Transfer/mastering/encoding/initial torrenting at bt.etree.org via C.Ladner, June 2006.

Disc I - Set I
01  Funiculi Funicula Tuning
02  Mississippi Half-Step Uptown Toodeloo >
03  Walkin' Blues
04  Candyman
05  Brother Esau
06  When Push Comes to Shove
07  Me & My Uncle >
08  Mexicalli Blues
09  Bird Song >
10  The Promised Land
Set II
11  West L.A. Fade Away >
12  Cumberland Blues
Total time:  70:40

Disc II - Set II (cont'd)
01  Looks Like Rain >
02  Eyes Of The World >
03  Drums >
04  Space >
05  The Wheel >
06  Gimme Some Lovin' >
07  Morning Dew >
08  Turn On Your Lovelight
Encore
09  U.S. Blues
Total time:  68:35

Thanks to Bill for borrowing me his masters to transfer.

SHNTOOL LEN OUTPUT:
    length     expanded size   cdr  WAVE problems filename
     2:01.00       21344444    ---   --   ---xx   gd1987-07-07d1t01.flac
     6:58.52       73857548    ---   --   ---xx   gd1987-07-07d1t02.flac
     6:49.27       72211148    ---   --   ---xx   gd1987-07-07d1t03.flac
     7:48.29       82623452    ---   --   ---xx   gd1987-07-07d1t04.flac
     5:15.37       55653068    ---   --   ---xx   gd1987-07-07d1t05.flac
     6:45.51       71561996    ---   --   ---xx   gd1987-07-07d1t06.flac
     2:45.22       29157788    ---   --   ---xx   gd1987-07-07d1t07.flac
     4:45.24       50330492    ---   --   ---xx   gd1987-07-07d1t08.flac
     9:53.60      104746364    ---   --   ---xx   gd1987-07-07d1t09.flac
     4:29.68       47611580    ---   --   ---xx   gd1987-07-07d1t10.flac
     8:02.66       85180076    ---   --   ---xx   gd1987-07-07d1t11.flac
     5:04.15       53660924    ---   --   ---xx   gd1987-07-07d1t12.flac
     8:41.26       91965596    ---   --   ---xx   gd1987-07-07d2t01.flac
     8:29.35       89869964    ---   --   ---xx   gd1987-07-07d2t02.flac
     7:13.55       76510604    ---   --   ---xx   gd1987-07-07d2t03.flac
    10:21.30      109615004    ---   --   ---xx   gd1987-07-07d2t04.flac
     4:40.72       49561388    ---   --   ---xx   gd1987-07-07d2t05.flac
     5:19.52       56393948    ---   --   ---xx   gd1987-07-07d2t06.flac
    11:12.49      118656092    ---   --   ---xx   gd1987-07-07d2t07.flac
     6:40.73       70731740    ---   --   ---xx   gd1987-07-07d2t08.flac
     5:55.32       62697308    ---   --   ---xx   gd1987-07-07d2t09.flac
   139:15.50     1473940524 B                     (totals for 21 files, 0.6380 overall compression ratio)
Show Checksums
flac-md5
3ad247c4978b2f42c3f6ce828d12e960 *gd1987-07-07d1t01.flac
5dad83e534225aa49c352dcce2f5f34a *gd1987-07-07d1t02.flac
affaaba9f97ecff21ad44d1aa52b01f9 *gd1987-07-07d1t03.flac
720e141d3cff1f7b62fbcfd4a12e817b *gd1987-07-07d1t04.flac
4e016f7737c6c07c26bb55e2806c9166 *gd1987-07-07d1t05.flac
9ce3e956b1f49cfb02c9b83218d25005 *gd1987-07-07d1t06.flac
4d11fb59318f33366c0e16b8b29a9bb3 *gd1987-07-07d1t07.flac
b0e2688ceedcd7a88bf9930c35238083 *gd1987-07-07d1t08.flac
d631ea78396255cef08b7c826409b8de *gd1987-07-07d1t09.flac
75ef648c990448e02840f1a20aac80b4 *gd1987-07-07d1t10.flac
8ba0d61fb289de3ad323159e679d580c *gd1987-07-07d1t11.flac
6f30b0dab446c99fc9c02ab79a77cc89 *gd1987-07-07d1t12.flac
817623ecaf84ce35fc5ee600ceba8ce9 *gd1987-07-07d2t01.flac
0489aa057c9d28675ee07997e4e7cfe3 *gd1987-07-07d2t02.flac
20d740e3b280cc970e9502ad60fbdd27 *gd1987-07-07d2t03.flac
a7a8c4bea2fc2103472497bb88504804 *gd1987-07-07d2t04.flac
d3ed07b992d1f16b1966ecc94e2f5775 *gd1987-07-07d2t05.flac
bee01ecddf97e95823836a7a386691a7 *gd1987-07-07d2t06.flac
f23ccbe4b670e30ce0ffc95ed1938858 *gd1987-07-07d2t07.flac
da92b1c2a1b270f8858fd78c9bb63a49 *gd1987-07-07d2t08.flac
40edd2554de145fdde432417f5652751 *gd1987-07-07d2t09.flac
ffp
gd1987-07-07d1t01.flac:23e91a27c9eb44e7b21ad96ee89b9876
gd1987-07-07d1t02.flac:0c43f27c723229affe82938c0c3624f1
gd1987-07-07d1t03.flac:1e4aa307636f13b35cdd25d249e554db
gd1987-07-07d1t04.flac:4848154b59770aa17651f9d1df2ef367
gd1987-07-07d1t05.flac:5f0c18cf20ee4eea12dfb2b65099ca8f
gd1987-07-07d1t06.flac:ff226bee1db93a6bee1bc1305cc650fc
gd1987-07-07d1t07.flac:be5a1be667b8757fb2369e2dc396afb8
gd1987-07-07d1t08.flac:8b4280bd4a86d740bc1e1ee37e66fe12
gd1987-07-07d1t09.flac:2da39eae45ddcc658b2508a70bf829fd
gd1987-07-07d1t10.flac:43c6b3171b0e7469f8c985af2fe7e816
gd1987-07-07d1t11.flac:f1efa8eb22298afd39c54b34df04b875
gd1987-07-07d1t12.flac:ef6dcdc43ed395858f8e6ebbb5a93ff4
gd1987-07-07d2t01.flac:01d893828d8f5fb0f1c9607c9776cc22
gd1987-07-07d2t02.flac:352baf02a0f5a90b2fa42ee56e5bc8ad
gd1987-07-07d2t03.flac:a58e7332cd16cc38f1fc5d89bc7af6a4
gd1987-07-07d2t04.flac:3af25b30b0a3ca85103f0253fe7bc683
gd1987-07-07d2t05.flac:eca938d26f6111dceeb765e48dee7ecc
gd1987-07-07d2t06.flac:6e7341af47b815ac7c48b7c2d1ac7dcf
gd1987-07-07d2t07.flac:ed307e595dc084c41d13ed04a5fe3c4d
gd1987-07-07d2t08.flac:955f843618c3abdc5734f81792c3dec7
gd1987-07-07d2t09.flac:ac5c57fe2f7dc571b2b1e5daafe79ca9

Comments
Add Comment
Other Sources (comments)
Schoeps > PCM > DAT > CD >... (2) AUD> Beyer Dynamic M88's>... (0) flac16; Source:... (0) flac16; Recorded by... (1) flac16; Recording:... (0)
Date User Comment
07/19/2006 TheTiger This is the superior source for this show.