Browse Collections Artists Sources   Search Dates

Add Show    List Management    Help


Grateful Dead 06/15/90
Shoreline Amphitheatre, Mountain View, CA
Comments Add Comment    Source Collectors    Add to Collection    Add to Want List    History
Source # 35161 Other Sources
Entered by Matt Vernon
Checksums ffp , orig-flac-replaygain-md5 , flac-md5
Disc Counts 2 / 3
Media Size
Date Circulated
Date Added
06/04/2006
06/21/2006
Source Summary flac16; Fix of shn id 8570 - SBD > DAT > CDR > WAV > SHN. Note Added 11/9/08: Reflac version w/o replay gain added. See info file for details 
  Archive
Source Information - Download Text | Download Zip
Grateful Dead
06/15/90
Shoreline Amphitheatre
Mountain View, CA
---------------------------------------------------------------------------------------
Fix of shnid 8570

I added a few seconds to the original AUD patch at the end of d2t05 in
CE Pro and crossfaded the section just before the two booming drum
sounds that announce the beginning of the drum set, making the
transition between CDs 2 and 3 seamless. The SHNs were converted to
FLAC and SBEs were fixed using shntool.

Bill Tetzeli ([email protected])
11:24 PM 6/4/2006
---------------------------------------------------------------------------------------
The source was originally circulated with replay gain flags set. A version
without those flags now circulates. If you have an older version and want
to create the current one, convert your flac files to wav's and then back
to flac at compression level 8.

SteveSw, Nov 2008
---------------------------------------------------------------------------------------
Source: SBD > DAT > CDR > WAV > SHN

Disc 1 - Set 1
01 Tuning
02 Help On The Way >
03 Slipknot! >
04 Franklin's Tower
05 New Minglewood Blues
06 Just A Little Light
07 Stagger Lee
08 Desolation Row
09 Ramble On Rose
10 Hell In A Bucket

Disc 2 - Set 2
01 Scarlet Begonias >
02 Fire On The Mountain ~
03 Blow Away >
04 Man Smart, Woman Smarter >
05 He's Gone* >

Disc 3 - Set 2 (cont'd)
01 Drums (1) >
02 Space >
03 The Other One >
04 Wharf Rat >
05 Around And Around
Encore
06 Knockin' On Heaven's Door

* end of DAT - last 3:06 from Rob and Jill Audience recording.
(1) Jerry played for the first 4:58 of Drums.

DAE(EAC) > boundary/splice/tracking (SHNTOOL, SF5) > SHN (MKWACT) via neo_levo/candyman

FTP.


shntool output:

length expanded size cdr WAVE problems filename
1:16.30 13477004 --- -- ---xx gd90-06-15d1t01.flac
3:08.54 33290252 --- -- ---xx gd90-06-15d1t02.flac
6:35.27 69741548 --- -- ---xx gd90-06-15d1t03.flac
11:43.27 124072748 --- -- ---xx gd90-06-15d1t04.flac
9:20.15 98819324 --- -- ---xx gd90-06-15d1t05.flac
6:59.29 73979852 --- -- ---xx gd90-06-15d1t06.flac
8:48.59 93278012 --- -- ---xx gd90-06-15d1t07.flac
14:05.07 149074508 --- -- ---xx gd90-06-15d1t08.flac
8:41.54 92031452 --- -- ---xx gd90-06-15d1t09.flac
7:15.68 76893980 --- -- ---xx gd90-06-15d1t10.flac
14:15.66 150977276 --- -- ---xx gd90-06-15d2t01.flac
16:21.71 173215436 --- -- ---xx gd90-06-15d2t02.flac
9:32.21 100950236 --- -- ---xx gd90-06-15d2t03.flac
12:55.21 136759436 --- -- ---xx gd90-06-15d2t04.flac
11:51.16 125458076 --- -- ---xx gd90-06-15d2t05.flac
0:20.44 3631532 --- -- ---xx gd90-06-15d2t05fade.flac
0:19.56 3483356 --- -- ---xx gd90-06-15d3t00fade.flac
10:57.51 116014796 --- -- ---xx gd90-06-15d3t01.flac
13:17.09 140612012 --- -- ---xx gd90-06-15d3t02.flac
5:36.44 59373932 --- -- ---xx gd90-06-15d3t03.flac
8:41.23 91958540 --- -- ---xx gd90-06-15d3t04.flac
9:43.18 102883580 --- -- ---xx gd90-06-15d3t05.flac
9:31.59 100863212 --- -- ---xx gd90-06-15d3t06.flac
201:19.44 2130840100 B (totals for 23 files, 0.5116 overall
compression ratio)
Show Checksums
ffp
gd90-06-15d1t01.flac:46c5d7c3dbc7153099a73df3d7de2469
gd90-06-15d1t02.flac:5a2d49bfef851fc69c4b87a49693688a
gd90-06-15d1t03.flac:4ab79d8384650756aa1ff86a01365fc6
gd90-06-15d1t04.flac:eaa5596d5a6069e3462f8a30ecb0892f
gd90-06-15d1t05.flac:b9745df02676b457d12c7f6c469dd012
gd90-06-15d1t06.flac:4cacb91b6e68d68053a7ed95a6bf7ef7
gd90-06-15d1t07.flac:57069e4c641f55042f9170e404dd6783
gd90-06-15d1t08.flac:74692961a6f830ed6247a95dd91981b3
gd90-06-15d1t09.flac:66088ffa32fd7d0bfd1531defff05d70
gd90-06-15d1t10.flac:ee9d846ee4896ac37ef96295847bbfa9
gd90-06-15d2t01.flac:0f63a9ac38302ae489e2253939506171
gd90-06-15d2t02.flac:74a04331c568ee17298c31dc865ed680
gd90-06-15d2t03.flac:0c9837a69058130959301a462d6329ff
gd90-06-15d2t04.flac:1fbb0740b55629320a553bb3555e1489
gd90-06-15d2t05.flac:d69e350d3eb6ca55396ec6b6ea9c5c39
gd90-06-15d3t01.flac:59e03c8723e80a4abb6d8ebb39f78495
gd90-06-15d3t02.flac:8fa21c7e9890cd9feb60c201abd09be0
gd90-06-15d3t03.flac:bcd5bfcd12ea8b371d7b6bfea91f4369
gd90-06-15d3t04.flac:0d89406fd171e820b5e8bf9abce67319
gd90-06-15d3t05.flac:95e412e54168b42195f2b265816d0d78
gd90-06-15d3t06.flac:b77af04b041060e1b8cf53ca33897c41
orig-flac-replaygain-md5
8af956280a35ebd2618cba71facedcfa *gd90-06-15d1t01.flac
5f783a64ebb6c31ba3617e1e9ab29670 *gd90-06-15d1t02.flac
153e139786094d97b6a7cba32b122135 *gd90-06-15d1t03.flac
44f5815bdb13dce8469935ab61741dcf *gd90-06-15d1t04.flac
29d95ff10d76bc325d39c5dc137f9c8e *gd90-06-15d1t05.flac
f3a5f13244e329d74352237f7d099b8f *gd90-06-15d1t06.flac
f09bc38a2ea449c05640a37c5ac25643 *gd90-06-15d1t07.flac
bab4debc6c224150c9c3ac9e16a11d19 *gd90-06-15d1t08.flac
09becafb46f87ed99a1043c80f78390f *gd90-06-15d1t09.flac
182ea9987d0c88fea25a65683cde2021 *gd90-06-15d1t10.flac
6fbefb9beffa5e72005b64d741fae152 *gd90-06-15d2t01.flac
df0678233fe03558630140cc13b66178 *gd90-06-15d2t02.flac
9c372e4f007aced95e4130f439e80161 *gd90-06-15d2t03.flac
2b21d4e80fcdde12c34013244a9d1678 *gd90-06-15d2t04.flac
185e523e475a84fc36ea5933588f9fdf *gd90-06-15d2t05.flac
f4fb80fb11444721e949b585ddf4830c *gd90-06-15d3t01.flac
4b24fab732805bfb2d2c224736ec06bd *gd90-06-15d3t02.flac
cfeec05062a00c263edb0e57261cb628 *gd90-06-15d3t03.flac
ade28d7cf90d5c7f98c1ffcbc5a292f1 *gd90-06-15d3t04.flac
480010617b02dcf7cc932306aa3b0880 *gd90-06-15d3t05.flac
c09025b2c6c16614afe5ce7aba9743ac *gd90-06-15d3t06.flac
flac-md5
4b482df61eef506d5a64c326fb93425b *gd90-06-15d1t01.flac
48680bfe46d8f229c48049492b3634de *gd90-06-15d1t02.flac
9cd20c1fc8514c1546f6eadcfcc17023 *gd90-06-15d1t03.flac
7a750358b47b5d493cdc54920b6b3602 *gd90-06-15d1t04.flac
6243019cc4f3ba75beea33552964c3ce *gd90-06-15d1t05.flac
7925f2a2c22ba9f12b832258dd11d2ed *gd90-06-15d1t06.flac
e65929b2a42edb9b57e312a280d2cdbb *gd90-06-15d1t07.flac
33f9f226f937adf2ae575c82c8afbae6 *gd90-06-15d1t08.flac
2e273961c237c65e5edf5f6d83f36da3 *gd90-06-15d1t09.flac
0977c9a41d42210ae691fe0cac6365f9 *gd90-06-15d1t10.flac
1de1c64f16fb759e3126b57d90c2dd05 *gd90-06-15d2t01.flac
2c7d6145bdf8f34f2fdbae49997960ad *gd90-06-15d2t02.flac
be4d59f680381ca6b61f5ea9a9b40957 *gd90-06-15d2t03.flac
f37d96b5010d0d4fa9913e954273a89f *gd90-06-15d2t04.flac
974858b322ae3c69b0e6d2df239db23e *gd90-06-15d2t05.flac
d586b374fcf6092d04460695a2499bb0 *gd90-06-15d3t01.flac
c6eb69b6d5f1c4c0e090c0792a9b4438 *gd90-06-15d3t02.flac
896c417ef8b3f141366413f4ecd2f8be *gd90-06-15d3t03.flac
21765adf4970be029f50f850f21b5e95 *gd90-06-15d3t04.flac
8609c6dd1a11033c56c8376f153f8d5f *gd90-06-15d3t05.flac
4d8b9b4e486edc9b12729fb300e864c7 *gd90-06-15d3t06.flac

Comments
Add Comment
Other Sources (comments)
3 Nak CM 300's - 2 CP 4's... (0) SBD > DAT > CDR > WAV >... (3) flac16; Recording... (0) flac24; Master... (0) flac16; Master... (0) flac16/48kHz; Set 2,... (0) flac16/48kHz; Rick... (1)
Date User Comment
11/09/2006 btet This was inadvertently FLAC encoded with replaygain. If you're playing the FLACs in Winamp you should reFLAC the files without the replaygain option. If you're burning extracted .wavs to CD, these are unaffected and no reFLACing is necessary. I apologize for the error.