Browse Collections Artists Sources   Search Dates

Add Show    List Management    Help


Grateful Dead 07/19/94
Deer Creek Music Center, Noblesville, IN
Comments Add Comment    Source Collectors    Add to Collection    Add to Want List    History
Source # 35164 Other Sources
Entered by Matt Vernon
Checksums ffp , orig-flac-replaygain-md5 , flac-md5
Disc Counts 2 / 3
Media Size
Date Circulated
Date Added
06/20/2006
06/21/2006
Source Summary flac16; Fix of shn id 8476 - DSBD>?>CDR>EAC>WAV>SHNv3. Note Added 11/9/08: Reflac version w/o replay gain added. See info file for details 
  Archive
Source Information - Download Text | Download Zip
Grateful Dead
7/19/94
Deer Creek Music Center
Noblesville, IN
------------------------------------------------------------------------
Fix of shnid 8476

This is not a perfect fix by any means - the overlap between CDs 2 and
3 was faded out and in. Because of Healy panning back and forth
between the channels, I had to compromise between sound quality and
finding a splice point that wouldn't result in white noise in one
channel when I did the reverse fade. This makes the reverse fade sound
like a couple of cassette generations have been added, but it's the
best I could do under the circumstances. Sorry.

Bill Tetzeli ([email protected])
1:06 AM 6/20/2006
------------------------------------------------------------------------
When this source was first circulated, the flac files contained
REPLAYGAIN tags. The wav files compressed inside the flac files are
fine, but if you listen to the flac files themselves using a player
like WinAMP, these tags cause all the tracks to be played at the same
volume. That's not good for concerts where some tracks are supposed to
be louder than others.

There's a new version of this source available. It has exactly the
same wav files; it's just the flac wrapper that's different, the
wrapper doesn't have REPLAYGAIN set anymore. The new version has the
same ffp file (since the wav's are the same), but a new md5 file
(since the flac files are different). The md5 file for the old source
is called "orig-flac-replaygain-md5"; the md5 file for the good new
source is called "flac-md5". If you have a source for this that
matches the ffp, you can create the new source by unflac'ing the old
source and then recompressing at flac level 8 using the flac command
line tool or the flac frontend.

From now on, only the new version of the source should be circulated.

SteveSw - Nov, 2008
------------------------------------------------------------------------

Source: DSBD>?>CDR
Conversion: CDR>EAC>WAV>SHNv3
Edit: SHN>WAV>FLAC

Set 1 - Disc 1
1. Shakedown Street
2. Walkin' Blues
3. Jack A Roe
4. Big River*->
5. Maggie's Farm
6. Broken Arrow
7. Tennessee Jed
8. Easy Answers

Set 2 - Disc 2
1. Foolish Heart->
2. Saint Of Circumstance->
3. I Want to Tell You->
4. Playin' In The Band->
5. Drums->

Set 2 Cont. - Disc 3
1. Space->
2. Wharf Rat->
3. Throwing Stones->
4. Not Fade Away
Encore:
5. Rain

* Weir on acoustic guitar

Notes:
This show was EAC'd to SHN by Dan Carr on 12/9/01 as part of a series of shows that I've been to but have not been seeded to etree in SHN format. The sound quality is excellent. Enjoy!


==========

    length     expanded size    cdr  WAVE problems  fmt   ratio  filename
    13:39.47      144582188 B   ---   --   ---xx   flac  0.6228  gd94-07-19d1t01.flac
     6:27.49       68382092 B   ---   --   ---xx   flac  0.6043  gd94-07-19d1t02.flac
     6:14.21       66023036 B   ---   --   ---xx   flac  0.5580  gd94-07-19d1t03.flac
     5:42.59       60467612 B   ---   --   ---xx   flac  0.6519  gd94-07-19d1t04.flac
     8:49.02       93320348 B   ---   --   ---xx   flac  0.5971  gd94-07-19d1t05.flac
     5:17.55       56048204 B   ---   --   ---xx   flac  0.6241  gd94-07-19d1t06.flac
     8:26.56       89390156 B   ---   --   ---xx   flac  0.6211  gd94-07-19d1t07.flac
     6:52.25       72735644 B   ---   --   ---xx   flac  0.6705  gd94-07-19d1t08.flac
    11:55.39      126217772 B   ---   --   ---xx   flac  0.6473  gd94-07-19d2t01.flac
     7:24.73       78493340 B   ---   --   ---xx   flac  0.6563  gd94-07-19d2t02.flac
     4:13.00       44629244 B   ---   --   ---xx   flac  0.6549  gd94-07-19d2t03.flac
    17:10.74      181866092 B   ---   --   ---xx   flac  0.6310  gd94-07-19d2t04.flac
    12:20.51      130655996 B   ---   --   ---xx   flac  0.5660  gd94-07-19d2t05.flac
    10:06.23      106952540 B   ---   --   ---xx   flac  0.5096  gd94-07-19d3t01.flac
    11:06.52      117604748 B   ---   --   ---xx   flac  0.5783  gd94-07-19d3t02.flac
    10:26.56      110558156 B   ---   --   ---xx   flac  0.6186  gd94-07-19d3t03.flac
    11:18.56      119730956 B   ---   --   ---xx   flac  0.5184  gd94-07-19d3t04.flac
     4:33.60       48298364 B   ---   --   ---xx   flac  0.6036  gd94-07-19d3t05.flac
   162:07.48     1715956488 B                            0.6037  (18 files)
Show Checksums
ffp
gd94-07-19d1t01.flac:308ee4753b0be5c73adaf857c021284a
gd94-07-19d1t02.flac:d7cf8ca4b940455c76bbe057d556bc06
gd94-07-19d1t03.flac:8be9f6086757bda0ebfb486c3c808efb
gd94-07-19d1t04.flac:93c6d5421614add8f05e5d59724f819d
gd94-07-19d1t05.flac:50461d730215c897846adfa1545dcedf
gd94-07-19d1t06.flac:c7ba2e6672bdce22b45652352f9dfd6a
gd94-07-19d1t07.flac:07eaa9cc32e58aaf3d50ae739e54b0c3
gd94-07-19d1t08.flac:fbcc9428907ed1e5d4e5fec9c005d40f
gd94-07-19d2t01.flac:510ce72933f4307f50e9acb2bdcf9f03
gd94-07-19d2t02.flac:2cff6f20507e62b47049df49d079d84e
gd94-07-19d2t03.flac:235c5f50a350617b869d60a54a665a7b
gd94-07-19d2t04.flac:1a080d05038075ed92f1cf08d60e7039
gd94-07-19d2t05.flac:a01bfd978b14edaf0f8b24d9e36fa5c6
gd94-07-19d3t01.flac:032dad946f1bf54e18cdf21ae3bd96b4
gd94-07-19d3t02.flac:1b10e0daabfd3110c2c8d88d8b5cba34
gd94-07-19d3t03.flac:83f8d199580081c95a841fbd9cab1bcd
gd94-07-19d3t04.flac:aaa7e02328c54f03a248503baf01a19f
gd94-07-19d3t05.flac:2a09816d0d77026d425affbf59c0da46
orig-flac-replaygain-md5
43293c3b56e1ffce49fb41dac0f2bac7 *gd94-07-19d1t01.flac
833f00fc6e4edc30cd992f8ad251e36e *gd94-07-19d1t02.flac
8a1b25eb755f22bac95664f1d4616e3a *gd94-07-19d1t03.flac
f43fdfb40979587c070e1f801af79500 *gd94-07-19d1t04.flac
28982bc5569eadfe421dceb92492dec7 *gd94-07-19d1t05.flac
bea441764db8acb64d1aaac0bc450318 *gd94-07-19d1t06.flac
d968d4ed11e6a8d04655f5cc9de17dce *gd94-07-19d1t07.flac
ffe58017d32f002fa33f295cbcd1de6a *gd94-07-19d1t08.flac
a55957fbdb4ac1c7b9f41e551fb04615 *gd94-07-19d2t01.flac
cb025f0b47461516394cc5183e401360 *gd94-07-19d2t02.flac
6290f8ea08d8e47fd23fc7f42f6f7281 *gd94-07-19d2t03.flac
e5cc9ebd4c25b181ca7554f0a45ba1f8 *gd94-07-19d2t04.flac
cf3cdde7ac665355b44cc3d16a8f3b2a *gd94-07-19d2t05.flac
ec486eef3403c211e38e13cb3f42f538 *gd94-07-19d3t01.flac
b1d17aaef3a48b8c26c78d2bae6c0054 *gd94-07-19d3t02.flac
6d214aeaba7c46c187037a8618efe59e *gd94-07-19d3t03.flac
4266679b4a7e8e34256f2b5ee6c63338 *gd94-07-19d3t04.flac
6ddb831e5a108881e1befe137c8a1e35 *gd94-07-19d3t05.flac
flac-md5
5a01ce39cad15d4bb1be301da99915a4 *gd94-07-19d1t01.flac
251b7cbe7ac87bcc59531dc39c0f4914 *gd94-07-19d1t02.flac
1d3595065b117e50f8a34059df7972d6 *gd94-07-19d1t03.flac
6ed571a918b36b18abc575824964b263 *gd94-07-19d1t04.flac
08e5a5e5a2aab0c4cac9feeedc72c67b *gd94-07-19d1t05.flac
b371df7961ccb7e005baec9bcb88ce0a *gd94-07-19d1t06.flac
2aee3e81c1ecab7173922619a39fe84a *gd94-07-19d1t07.flac
02826b8a414bff6ddf3260a78fd89192 *gd94-07-19d1t08.flac
a18f9414d05415daad18fd52a0c56294 *gd94-07-19d2t01.flac
e8226062b617c69bb44b99dfbc3be0d0 *gd94-07-19d2t02.flac
e4da6e76a2e9341cb7037b2f7fbf6aae *gd94-07-19d2t03.flac
bfefe670fc1ea47de43c88b3767f9900 *gd94-07-19d2t04.flac
f927ee6e029c039b2eab6a378f7406b6 *gd94-07-19d2t05.flac
3da39a22860d1282f9b102fac6637a4e *gd94-07-19d3t01.flac
9a4bc94dd562736893470ef7ebb44ee7 *gd94-07-19d3t02.flac
57fb6b2c25ab51b1352b1471c853ce80 *gd94-07-19d3t03.flac
1d278fc54e78f565adf992ba6c89ba93 *gd94-07-19d3t04.flac
c252297c222ace35732b2774ebb3fe62 *gd94-07-19d3t05.flac

Comments
Add Comment
Other Sources (comments)
DSBd>?>CDR; Seeded to etree... (1) AudioTechnica 815A... (0) flac16; Set 2 only,... (0) flac16; Taper: Greg... (0) flac16; Nak 300's >... (0)
Date User Comment
06/21/2006 Bill Tetzeli Please note from the metadata that there are also fade tracks at the end of CD2 and CD3, which I forgot to include in the setlist. These can be removed for seamless playback.
11/09/2006 btet This was inadvertently FLAC encoded with replaygain. If you're playing the FLACs in Winamp you should reFLAC the files without the replaygain option. If you're burning extracted .wavs to CD, these are unaffected and no reFLACing is necessary. I apologize for the error.