Browse Collections Artists Sources   Search Dates

Add Show    List Management    Help


Grateful Dead 04/07/95
Tampa Stadium, Tampa, FL
Comments Add Comment    Source Collectors    Add to Collection    Add to Want List    History
Source # 35364 Other Sources
Entered by Matt Vernon
Checksums ffp , orig-flac-replaygain-md5 , flac-md5
Disc Counts 2 / 3
Media Size
Date Circulated
Date Added
06/29/2006
06/30/2006
Source Summary flac16; Seamless fix of shn id 35148 - SBD>Cass>DAT>ZA2>Samlitude2496(WAV)>SHN>WAV>FLAC. Note Added 11/9/08: Reflac version w/o replay gain added. See info file for details 
  Archive
Source Information - Download Text | Download Zip
Grateful Dead
Tampa, Florida
Tampa Stadium
4-7-95
------------------------------------------------------------------------
Fix of shnid 35148

I made the transition between CDs 2 and 3 seamless by deleting the
overlap between them - simple and easy.  shntool used to clean up
sector boundaries, SHNs were converted to FLACs.

Bill Tetzeli ([email protected])
11:41 PM 6/26/2006
------------------------------------------------------------------------
When this source was first circulated, the flac files contained
REPLAYGAIN tags. The wav files compressed inside the flac files are
fine, but if you listen to the flac files themselves using a player
like WinAMP, these tags cause all the tracks to be played at the same
volume. That's not good for concerts where some tracks are supposed to
be louder than others.

There's a new version of this source available. It has exactly the
same wav files; it's just the flac wrapper that's different, the
wrapper doesn't have REPLAYGAIN set anymore. The new version has the
same ffp file (since the wav's are the same), but a new md5 file
(since the flac files are different). The md5 file for the old source
is called "orig-flac-replaygain-md5"; the md5 file for the good new
source is called "flac-md5". If you have a source for this that
matches the ffp, you can create the new source by unflac'ing the old
source and then recompressing at flac level 8 using the flac command
line tool or the flac frontend.

From now on, only the new version of the source should be circulated.

SteveSw - Nov, 2008
------------------------------------------------------------------------

Source: SBD>Cass>DAT>ZA2>Samlitude2496(WAV)>SHN>WAV>FLAC

Set1
Disc 1

1. Jack Straw
2. Peggy-O
3. Little Red Rooster
4. Loose Lucy
5. Materpiece
6. Visions of Johanna
7. Promised Land

Set 2
Disc 2

1. Eyes of the World
2. Saint of Circumstance
3. Samba In the Rain
4. Unbroken Chain
5. Corinna
6. Drums

Disc 3

1. Space
2. Eternity
3. Days Between
4. Not Fade Away
5. Crowd

Encore:
6. U.S. Blues

Notes:
-Supposedly all dats of Promised Land are cut. This is one of the few existing copies where it's not.
-Transferred 5/03 by Chris Larson ([email protected])


==========

    length     expanded size    cdr  WAVE problems  fmt   ratio  filename
     5:47.09       61232012 B   ---   --   ---xx   flac  0.6030  gd95-04-07d1t01.flac
     7:09.00       75675644 B   ---   --   ---xx   flac  0.5335  gd95-04-07d1t02.flac
     8:38.25       91434044 B   ---   --   ---xx   flac  0.5515  gd95-04-07d1t03.flac
     9:16.55       98207804 B   ---   --   ---xx   flac  0.5426  gd95-04-07d1t04.flac
     6:20.43       67133180 B   ---   --   ---xx   flac  0.5290  gd95-04-07d1t05.flac
    12:33.30      132899804 B   ---   --   ---xx   flac  0.5281  gd95-04-07d1t06.flac
     4:39.60       49356764 B   ---   --   ---xx   flac  0.6252  gd95-04-07d1t07.flac
    16:04.56      170181356 B   ---   --   ---xx   flac  0.5915  gd95-04-07d2t01.flac
     7:32.26       79793996 B   ---   --   ---xx   flac  0.6228  gd95-04-07d2t02.flac
     6:35.61       69821516 B   ---   --   ---xx   flac  0.6204  gd95-04-07d2t03.flac
     7:32.29       79801052 B   ---   --   ---xx   flac  0.5787  gd95-04-07d2t04.flac
    10:55.21      115591436 B   ---   --   ---xx   flac  0.6175  gd95-04-07d2t05.flac
    17:07.71      181329836 B   ---   --   ---xx   flac  0.5453  gd95-04-07d2t06.flac
    13:20.27      141183548 B   ---   --   ---xx   flac  0.5288  gd95-04-07d3t01.flac
     6:46.47       71728988 B   ---   --   ---xx   flac  0.6349  gd95-04-07d3t02.flac
    11:37.49      123066092 B   ---   --   ---xx   flac  0.5728  gd95-04-07d3t03.flac
    10:56.35      115800764 B   ---   --   ---xx   flac  0.5777  gd95-04-07d3t04.flac
     5:50.39       61831772 B   ---   --   ---xx   flac  0.5891  gd95-04-07d3t05.flac
   168:45.08     1786069608 B                            0.5720  (18 files)
Show Checksums
ffp
gd95-04-07d1t01.flac:fefea9d0e158b1601a19c967b5d73b0b
gd95-04-07d1t02.flac:be1758dfb64b366b85f0efaa47b9ede3
gd95-04-07d1t03.flac:0cef8136146a4681a5d5a7be10744705
gd95-04-07d1t04.flac:42bdce97f98ff059a65c05ca14c40331
gd95-04-07d1t05.flac:847f925279e52727d4b25c34630ae547
gd95-04-07d1t06.flac:e020ec8ead197cf5cc8ef5b8b735a024
gd95-04-07d1t07.flac:5bfff5bd8c8a06bc7e0b67dc55f66aec
gd95-04-07d2t01.flac:d4f46c2aea5949765c847a9f45e9d1e3
gd95-04-07d2t02.flac:9f38bfb230b5af18d467b2111ee73222
gd95-04-07d2t03.flac:3e162c99afde01d723167ab5c5af0184
gd95-04-07d2t04.flac:17c2d4153ab9267658a0fd9048098d02
gd95-04-07d2t05.flac:2716d0c2e713749caf0a03f927d240ec
gd95-04-07d2t06.flac:025c2a53834439e5070396e06ae3b7cb
gd95-04-07d3t01.flac:89ed070aa7c0511ad4c0e11e8694cc98
gd95-04-07d3t02.flac:69020ac02bd997df19a7247b5328d6ef
gd95-04-07d3t03.flac:a335940bd323297e11d276cf64723c2f
gd95-04-07d3t04.flac:c882739b8c2e81956e9db1ec91c24e8f
gd95-04-07d3t05.flac:4477225e5ea7340aa5c1a29bc4d07ea6
orig-flac-replaygain-md5
8ef8bfe6c2f6b6e9d4f5cf7f3794f05b *gd95-04-07d1t01.flac
53c3d1f8ffc9bff1651833bcd1976cf8 *gd95-04-07d1t02.flac
cc45bfc9635eb4c45234fe2c59447dd4 *gd95-04-07d1t03.flac
1784b12c7ff101428f0ebc0a977369ab *gd95-04-07d1t04.flac
f7deb5154a5e1d87c79660b9f681c080 *gd95-04-07d1t05.flac
9554461437597cff5fc3f8030464bbc5 *gd95-04-07d1t06.flac
8071373a949bac69d20f9c0c375357a7 *gd95-04-07d1t07.flac
3b57b1b5c00c200c3de9629be2eae598 *gd95-04-07d2t01.flac
8c38b9336f51579bebbcc8fcde4f851d *gd95-04-07d2t02.flac
cb95da6a0a11d73e760a797d85288ec1 *gd95-04-07d2t03.flac
5439714c620e2c277cb9e8dd568db553 *gd95-04-07d2t04.flac
f579a7eaa616a0974375a3c70537620c *gd95-04-07d2t05.flac
d0a0b1a3cc5e0973ed4ba38726b07920 *gd95-04-07d2t06.flac
af19600193f4de857656877dd0577f66 *gd95-04-07d3t01.flac
d4feb1d55326a19005fed24c32866896 *gd95-04-07d3t02.flac
e9aee98ceab2675d5f7e237b0ab060ce *gd95-04-07d3t03.flac
6e55ac89946f7705d5f585eb00b949f7 *gd95-04-07d3t04.flac
401d36eb7fc5275f77b766ea26fc04a0 *gd95-04-07d3t05.flac
flac-md5
f4ca0a66f7646dc827243fb57bff5052 *gd95-04-07d1t01.flac
7df0e32c7600bdab624cce7190df51c5 *gd95-04-07d1t02.flac
d598d0599ce6f439c82fedbfd69b1bc3 *gd95-04-07d1t03.flac
b2d1ad23abf5bba6459284ecb4f34918 *gd95-04-07d1t04.flac
6445c767841b52f96841e2b61ca58081 *gd95-04-07d1t05.flac
bd290782cfc566a3b4a2c4305d775f11 *gd95-04-07d1t06.flac
d8447305ff4dfb9253edc419b7ce39ca *gd95-04-07d1t07.flac
8fa39fbf50ed7bced7cd59bb53d45537 *gd95-04-07d2t01.flac
e438ebdb6e3590ee2b7424040abec1a6 *gd95-04-07d2t02.flac
a9d48a1c4ae18c70ef0ea0c9bea185fc *gd95-04-07d2t03.flac
6fc29cbf3d3d0a4ffa5e15b2b0b257e9 *gd95-04-07d2t04.flac
0ff65eaa62b631b3fae5bf3d85bd79ea *gd95-04-07d2t05.flac
e9068d38479a0ed89a1b806d3788ff98 *gd95-04-07d2t06.flac
cb0edd8e010bad3ac027ecb292d29c89 *gd95-04-07d3t01.flac
716e1711ee2544e575898778d75fa3cb *gd95-04-07d3t02.flac
9503c0005471e5a3fa0b65f9373b08bd *gd95-04-07d3t03.flac
2fa6747d5dbe250eebfe6931083865ce *gd95-04-07d3t04.flac
640c0726efe3012b4ec6367f7dc320fe *gd95-04-07d3t05.flac

Comments
Add Comment
Other Sources (comments)
Source unknown - suspect... (2) flac16; Source:... (2) flac16; source:... (1) flac16/48kHz;... (0) flac16; Source:... (0) flac16 44.1khz ... (0)
Date User Comment
11/11/2008 SteveSw You might want to fix the text file ... D3T02 is "Easy Answers"
04/23/2009 cool_breeze There are only five tracks on disc three.

d3t04 - Not Fade Away
d3t05 - U.S. Blues