Browse Collections Artists Sources   Search Dates

Add Show    List Management    Help


Grateful Dead 07/08/87
Roanoke Civic Center, Roanoke, VA
Comments Add Comment    Source Collectors    Add to Collection    Add to Want List    History
Source # 35399 Other Sources
Entered by Matt Vernon
Checksums flac-md5 , ffp
Disc Counts 2 / 2
Media Size
Date Circulated
Date Added
07/01/2006
07/02/2006
Source Summary flac16; Source: Taper's section at the SBD, Nakamichi 300s > Sony D5 > Maxell MX90 Master Cassettes. Taped by B.Koucky. Transfer: MAC playback on Nakamichi DR-2 > Presonus Firebox (stereo preamp and 24 bit/96 A/D) > firewire/2 GHz PC/WinXP > recorded as 24 bit/96 KHz WAV & pauses/flips were smoothed with crossfades, Wavelab 5 > rendered to 16 bit/44.1 KHz WAV, Waves L3 Multimaximizer > CDWAV 1.9 (tracking) > FLAC (level 8) Transfer/mastering/encoding/initial torrenting at bt.etree.org via C.Ladner 
  Archive
Source Information - Download Text | Download Zip
Grateful Dead
07/08/1987
Roanoke Civic Center
Roanoke, VA

Source:  Taper's section at the SBD, Nakamichi 300s > Sony D5 > Maxell MX90 Master Cassettes.  
Taped by B.Koucky.
Transfer: MAC playback on Nakamichi DR-2 > Presonus Firebox (stereo preamp and 24 bit/96 A/D) > firewire/2 GHz PC/WinXP > recorded as 24 bit/96 KHz WAV & pauses/flips were smoothed with crossfades, Wavelab 5 > rendered to 16 bit/44.1 KHz WAV, Waves L3 Multimaximizer > CDWAV 1.9 (tracking) > FLAC (level 8).
Transfer/mastering/encoding/initial torrenting at bt.etree.org via C.Ladner, June 2006.

Disc I - Set I
01  crowd
02  Hell In A Bucket >
03  Sugaree
04  It's All Over Now
05  Dupree's Diamond Blues
06  Never Trust A Woman
07  When I Paint My Masterpiece
08  Big Railroad Blues
09  Let It Grow
Set II
10  Scarlet Begonias >
11  Fire On The Mountain
Total time:  76:18

Disc II - Set II (cont'd)
01  Estimated Prophet >
02  He's Gone >
03  Drums >
04  Space >
05  Crazy Fingers >
06  Truckin' >
07  Comes A Time >
08  Sugar Magnolia
Encore
09  Black Muddy River
Total time:  72:25

Comments:
Big thanks to Bill K. for sharing his masters.
Rare "Comes A Time" -  next one not 'til 12/27/90.

SHNTOOL LEN OUTPUT
    length     expanded size   cdr  WAVE problems filename
     1:04.16       11327276    ---   --   ---xx   gd1987-07-08d1t01.flac
     6:02.55       63986204    ---   --   ---xx   gd1987-07-08d1t02.flac
     8:20.20       88247084    ---   --   ---xx   gd1987-07-08d1t03.flac
     8:58.20       94950284    ---   --   ---xx   gd1987-07-08d1t04.flac
     7:59.72       84664988    ---   --   ---xx   gd1987-07-08d1t05.flac
     5:20.05       56459804    ---   --   ---xx   gd1987-07-08d1t06.flac
     4:18.09       45532412    ---   --   ---xx   gd1987-07-08d1t07.flac
     3:53.24       41157692    ---   --   ---xx   gd1987-07-08d1t08.flac
    11:42.50      123950444    ---   --   ---xx   gd1987-07-08d1t09.flac
     8:56.35       94632764    ---   --   ---xx   gd1987-07-08d1t10.flac
     9:42.32      102740108    ---   --   ---xx   gd1987-07-08d1t11.flac
    10:56.00      115718444    ---   --   ---xx   gd1987-07-08d2t01.flac
    10:07.30      107145404    ---   --   ---xx   gd1987-07-08d2t02.flac
     7:10.11       75877916    ---   --   ---xx   gd1987-07-08d2t03.flac
     6:18.72       66848588    ---   --   ---xx   gd1987-07-08d2t04.flac
     8:22.61       88696316    ---   --   ---xx   gd1987-07-08d2t05.flac
     6:15.08       66168860    ---   --   ---xx   gd1987-07-08d2t06.flac
     7:29.13       79234220    ---   --   ---xx   gd1987-07-08d2t07.flac
     9:06.65       96467324    ---   --   ---xx   gd1987-07-08d2t08.flac
     6:38.50       70324844    ---   --   ---xx   gd1987-07-08d2t09.flac
   148:43.48     1574130976 B                     (totals for 20 files, 0.6185 overall compression ratio)

Show Checksums
flac-md5
39c06bb69267d4d92821d99c9ad6049e *gd1987-07-08d1t01.flac
1ac4fe1d1a62ac225dd235ce676a01ee *gd1987-07-08d1t02.flac
a5789bb29c148ba5e151862c595ce1f3 *gd1987-07-08d1t03.flac
6ee0b9ffacc7795f1e4f99142087dd1d *gd1987-07-08d1t04.flac
08bfcd5396b9b669e60b62f38e233b3c *gd1987-07-08d1t05.flac
0649f3a12bda46605d3a1ae1bf8196de *gd1987-07-08d1t06.flac
789e725518bccdc81945ac13c5dad646 *gd1987-07-08d1t07.flac
e94fc5f7d1a11b3e4b2bc907a42e6f0a *gd1987-07-08d1t08.flac
81d3b53b49d1908925e6db6d579d0232 *gd1987-07-08d1t09.flac
a3188827ffaf29f2c4fffcde90d688de *gd1987-07-08d1t10.flac
6699e2e453c5f90390c97daf975f474f *gd1987-07-08d1t11.flac
3e119a8f5c41b1ac12aabe590ef37243 *gd1987-07-08d2t01.flac
5cd361ae8b836dfcd3509b4ca429d214 *gd1987-07-08d2t02.flac
76b90d24ab16b6757dcbdc2ff4213a68 *gd1987-07-08d2t03.flac
51a5fa1a6c072b7ad4310bf19ba23eba *gd1987-07-08d2t04.flac
6f9343312a7149e522bd650ef5bda298 *gd1987-07-08d2t05.flac
ababbebfb56b17d04e8e06af242918c9 *gd1987-07-08d2t06.flac
5b9a7a35df91edf938ac1895b4ac7119 *gd1987-07-08d2t07.flac
df4e79071ceb62b9dc09c0a183d56836 *gd1987-07-08d2t08.flac
2053739afe387d3e937be539314c055f *gd1987-07-08d2t09.flac
ffp
gd1987-07-08d1t01.flac:db5bf3e30986ef5ded62f6ecd075e28e
gd1987-07-08d1t02.flac:d3f15686758e98811ce6c10c0f0168fa
gd1987-07-08d1t03.flac:78f8635804f35d07b2473ffb5c3846fa
gd1987-07-08d1t04.flac:1f6045995f4935513d2f6b42f858208b
gd1987-07-08d1t05.flac:68295e5db48dec38e5af742620d96b07
gd1987-07-08d1t06.flac:b0e78f88b7e89afd7047360a0d87edee
gd1987-07-08d1t07.flac:e06eab1afe25786cfd6098fddf323ad7
gd1987-07-08d1t08.flac:de4dc7694533b3947f8dbaf6f1c40d3a
gd1987-07-08d1t09.flac:d332078502ffa7d0b3f5c2c8ba4ec609
gd1987-07-08d1t10.flac:e1c0d839541cb34c836103f4dc76f548
gd1987-07-08d1t11.flac:6be12a5d87702fe5c35f53169de5bb41
gd1987-07-08d2t01.flac:6385f47c3e1729ce7bf010b33ddd307c
gd1987-07-08d2t02.flac:96248a6e734dc76cc390314ec6baf03b
gd1987-07-08d2t03.flac:d0c9c41083fcee4b51867c1c0f9cf283
gd1987-07-08d2t04.flac:73189e22568364e541a13b2c7ca7db57
gd1987-07-08d2t05.flac:52b8d08a096279f2bf26998ad01ad88d
gd1987-07-08d2t06.flac:050a3166b3a63e4c49d3f4c0fa3da7af
gd1987-07-08d2t07.flac:48e45c9f8b6e08690e89031a157d6343
gd1987-07-08d2t08.flac:76f560c33971f5405532500d25291514
gd1987-07-08d2t09.flac:ae5bd5f9519a385935a89774b5a15e29

Comments
Add Comment
Other Sources (comments)
FOB aud.->DAT->WAV->SHN;... (1) AUD (taper's section)>... (1) FOB Schoeps > PCM > DAT @... (0) flac16; Recording... (0) flac16; Recorded by... (0) flac16; Recording:... (0) flac24; Source:... (0) flac16; Set 2... (0)
Date User Comment