Browse Collections Artists Sources   Search Dates

Add Show    List Management    Help


Phish 05/21/89
320 Spear St., Burlington, VT
Comments Add Comment    Source Collectors    Add to Collection    Add to Want List    History
Source # 405 Other Sources
Entered by Matt Vernon
Checksums all_ffp-FIXED , all_wav_md5-FIXED , st5 , all_md5_shn
Disc Counts 0 / 2
Media Size
Date Circulated
Date Added
2/12/00
03/28/2002
Source Summary SBD > Cass/0 > DAT > CDR > EAC > SHN; via Brendan K., B. Mohr; see info file for known flaws and notes on some fixes; May also circulate as 5-21-88 but this is the correct date as found in the Phish Companion 
Source Information - Download Text | Download Zip
Phish
05-21-89
320 Spear Street - Burlington, VT
'a private house party'

SBD > Cass/0 > DAT > CDR > EAC > SHN

Thanks to Brendan K. for the seed.
SHN conversion: Ben Mohr ([email protected])
carini.etree.org

--------------
Disc 1 (41:44)
--------------
1. Harry Hood (9:52)
2. Foam (7:56)
3. Contact (9:01)
4. Mike's Song -> (5:53)
5. I Am Hydrogen -> (2:33)
6. Weekapaug Groove (6:29)

--------------
Disc 2 (59:58)
--------------
1. Intro (1:18)
2. Split Open and Melt (7:55)
3. Dazed and Confused* (6:05)
4. The Sloth (7:23)
5. You Enjoy Myself -> (14:51)
6. Ya Mar (5:46)
7. AC/DC Bag (5:47)
8. The Divided Sky** (10:53)

Notes
*tape flip? at 0:41 in d2t3 Dazed and Confused
**Divided Sky ends abruptly...from original cassette
   (most likely it was the end of cassette end of tape and the remainder of the song
   was not taped or has been lost)

Fixes
-Each disc was normalized to 98%.
-Retracked both discs so that the start of the song appeared at the start of each track.
-There were a few instances where there was no right channel sound or the right channel
  would have sound/static for a few seconds, then drop out, then come back in as
  sound/static. This was fixed by mixing the left channel, which was normal, onto the
  right channel. Even though this is not PCP-compliant, the tracks were not listenable
  to during these periods until the fixes were made.
  This occurred...
0:00-1:30 d1t1 Harry Hood
8:38-9:21 d2t2 Dazed and Confused
0:00-1:12 d2t3 The Sloth
-There was some nasty static for about a second at the very beginning of Divided Sky
  that I did my best to smooth/edit out but it was a lost cause.  I decided to cut
  out that portion in order to not distract from the rest of the show.  The
  transition is not noticeable at all.
Show Checksums
all_ffp-FIXED
ph1989-05-21d1t01.flac:194957b4eede5097c672dc76f4fcbd87
ph1989-05-21d1t02.flac:00c2be836c099d073328376b7d879856
ph1989-05-21d1t03.flac:c675a173b36ab63cf05d65fc676babf2
ph1989-05-21d1t04.flac:97a4f2e31006f18e12b4e90f52745fc8
ph1989-05-21d1t05.flac:cadcb31e3febc43ec9977c0f47119a4b
ph1989-05-21d1t06.flac:87a476865fa6d16d0d7f4ebdbb33d955
ph1989-05-21d2t01.flac:22def5442dcb9dca6276a8bad987eec7
ph1989-05-21d2t02.flac:9521df48d5abb48e250cdc3f870ba21c
ph1989-05-21d2t03.flac:a02ba3d247a88113817a16b9c9c4c1d9
ph1989-05-21d2t04.flac:a0bac87a3f62a548d94d80638e0dd8d7
ph1989-05-21d2t05.flac:116b2acfffa4fefc66d18e9f0e5f530f
ph1989-05-21d2t06.flac:eb0b91b47365e53007a6d5c4380a1062
ph1989-05-21d2t07.flac:0f83d27a520643040b9e85eb7886af38
ph1989-05-21d2t08.flac:b446069fcbbf312b421f37a037620785
all_wav_md5-FIXED
c110943ef5aca7e1133a378455c3e204 *ph1989-05-21d1t01.wav
4efce623eaa1e1c276ee2811dd2a12c5 *ph1989-05-21d1t02.wav
3828ed67e23bea38ab938f16c06cc807 *ph1989-05-21d1t03.wav
c240576eb0e0bf3292fcc24e27ae7461 *ph1989-05-21d1t04.wav
8cb7d504e6c680270c11dc1cffa7615a *ph1989-05-21d1t05.wav
348d766e8560a5347b23ff77433baa4f *ph1989-05-21d1t06.wav
04c3ba301d24630c4eb687cec28a71ac *ph1989-05-21d2t01.wav
48c293f01a7286b1cf7904494a0844af *ph1989-05-21d2t02.wav
ad3b5869a2f17e65b846c8d2e1849d60 *ph1989-05-21d2t03.wav
040560c90c70e3758967d93c44ede825 *ph1989-05-21d2t04.wav
64fb14276fa8a7f0965cfbbc6f6e6e6b *ph1989-05-21d2t05.wav
08394ded79946135af1fb9817d4d74e7 *ph1989-05-21d2t06.wav
b32ebebe486742aae981b7f29837fba6 *ph1989-05-21d2t07.wav
539c12b8f3240ccd5b8e66fd1d19552a *ph1989-05-21d2t08.wav
st5
194957b4eede5097c672dc76f4fcbd87 [shntool] ph88-05-21d1t01.shn
72f68316713ebbaffbe99cacda2591ee [shntool] ph88-05-21d1t02.shn
2025545a2de89858acc8443e59c5098a [shntool] ph88-05-21d1t03.shn
13f4cc148dcfaffffeaee376c48f1957 [shntool] ph88-05-21d1t04.shn
da17838c993da964e1ea048b200c2dc0 [shntool] ph88-05-21d1t05.shn
6dc8e29cc6abc119e9902515e5ee011f [shntool] ph88-05-21d1t06.shn
22def5442dcb9dca6276a8bad987eec7 [shntool] ph88-05-21d2t01.shn
50c58873ed31ee797d36472d6d6a4d26 [shntool] ph88-05-21d2t02.shn
44f19a92b61d0d17e4ff3b78f8808108 [shntool] ph88-05-21d2t03.shn
53604849d270984191435fa3b11459b7 [shntool] ph88-05-21d2t04.shn
b75087b12e775e4d700be86d5bed43b6 [shntool] ph88-05-21d2t05.shn
f0b36a10f97798b076250ca5de326fae [shntool] ph88-05-21d2t06.shn
3e7ddac2b558304dbb6182919f534708 [shntool] ph88-05-21d2t07.shn
75d4deb1bf969f253fb63f8e7bc08fbb [shntool] ph88-05-21d2t08.shn
all_md5_shn
c401d51ad7e4420f877577b534d1f310 *ph88-05-21d1t02.shn
d3cde1a63c557afb3725c35f6a6e9d48 *ph88-05-21d1t03.shn
b6a82410ba5201796585eb488da641fd *ph88-05-21d1t04.shn
91948b2e732f0c9349177a9648680608 *ph88-05-21d1t05.shn
5cf6a311e06302ebbdd724e6e9f352ec *ph88-05-21d1t06.shn
30f8eb23ab6c76b9fdba01a9a2804a3a *ph88-05-21d1t01.shn
7d72f145c193c9846e81fa150bb26410 *ph88-05-21d2t02.shn
017022b3ad1fb5b008dc23bec82c2375 *ph88-05-21d2t03.shn
be8981ac0887189e35eb8716445a6815 *ph88-05-21d2t04.shn
ff968f27ccfb9a27cc9002c5279ddeed *ph88-05-21d2t05.shn
53b2b050858432b354491bd3ab6651da *ph88-05-21d2t06.shn
a7b752fc77fde6dc1db8075520e28a41 *ph88-05-21d2t07.shn
62ae229a45a9b2e195411f1dbd67ddf6 *ph88-05-21d2t08.shn
511146658028ba9bd72f4b5e3a0fc311 *ph88-05-21d2t01.shn

Comments
Add Comment
Other Sources (comments)
Unknown > CD > EAC > wav >... (0)
Date User Comment
04/15/2007 Ford Prefect SBE's.

length expanded size cdr WAVE problems fmt ratio filename
9:52.50 104546444 B --- -- ----- wav 1.0000 ph88-05-21d1t01.wav
7:56.37 84053036 B -b- -- ----- wav 1.0000 ph88-05-21d1t02.wav
9:01.00 95432444 B --- -- ----- wav 1.0000 ph88-05-21d1t03.wav
5:53.10 62292940 B -b- -- ----- wav 1.0000 ph88-05-21d1t04.wav
2:33.00 26989244 B --- -- ----- wav 1.0000 ph88-05-21d1t05.wav
6:29.20 68666684 B --- -- ----- wav 1.0000 ph88-05-21d1t06.wav
1:18.30 13829804 B --- -- ----- wav 1.0000 ph88-05-21d2t01.wav
7:55.63 83937852 B -b- -- ----- wav 1.0000 ph88-05-21d2t02.wav
6:05.50 64503644 B --- -- ----- wav 1.0000 ph88-05-21d2t03.wav
7:23.50 78262844 B --- -- ----- wav 1.0000 ph88-05-21d2t04.wav
14:51.19 157217132 B --- -- ----- wav 1.0000 ph88-05-21d2t05.wav
5:46.10 61057964 B --- -- ----- wav 1.0000 ph88-05-21d2t06.wav
5:47.59 61349612 B --- -- ----- wav 1.0000 ph88-05-21d2t07.wav
10:53.38 115278752 B -b- -- ----- wav 1.0000 ph88-05-21d2t08.wav
101:47.61 1077418396 B 1.0000 (14 files)