Browse Collections Artists Sources   Search Dates

Add Show    List Management    Help


Reconstruction 03/08/79
Cabaret Cotati, Cotati, CA
Comments Add Comment    Source Collectors    Add to Collection    Add to Want List    History
Source # 4439 Other Sources
Entered by Joe Jupille
Checksums d1 , d2
Disc Counts 1 / 2
Media Size
Date Circulated
Date Added

12/10/2001
Source Summary mislabel of 3/9/79; SBD > master reel > DAT(s), with some lineage uncertainty. Tascam DA-20 @ 48.0 kHz > ZA-2 resample to 44.1kHz on the fly > HD using Cool Edit > CDWave > track waves > CD-R master using CDRWin. Extraction: CD-R master > EAC > HD > MKW shorten > .shn, via Uncle John. 
Source Information - Download Text | Download Zip
Reconstruction
March 8, 1979
Caberat Cotati, Cotati CA

source:
SBD > master reel > DAT(s)
note - this lineage is different from that known to be in circulation on Deadlists.com,
which includes a PCM stage: MSR > P > D.  My DAT came from a trade on The Well,
and may be a true MSR > DAT.  I have no way to know for sure.

Conversion:
Tascam DA-20 @ 48.0 kHz > ZA-2 resample to 44.1kHz on the fly > HD using Cool Edit >
CDWave > track waves > CD-R master using CDRWin

Extraction:
CD-R master > EAC > HD > MKW shorten > .shn

Brought to by Uncle John, [email protected]  

The DAT didn't have a setlist, and I'm not hip to all the tunes, so I didn't try
to make one up.  However, Deadlists lists the set info as follows.  If you figure out the
track list, please email me!

set 1:
Lovely Night For Dancing
Sama Layuca
I Just Want To Stop
Another Star
Do I Move You?
Strugglin' Man
Long Train Running Instrumental

set 2:
Make It Better
Sould Roach
What You Won't Do For Love
Welcome To The Basement
Ain't That Lovin' You
Lyinda
It's No Use


Here are my cue sheets:

FILE F:\030879_1.WAV WAVE
  TRACK 01 AUDIO
    FLAGS DCP
    INDEX 01 00:00:00 rem -
  TRACK 02 AUDIO
    FLAGS DCP
    INDEX 01 07:11:17 rem -
  TRACK 03 AUDIO
    FLAGS DCP
    INDEX 01 18:01:22 rem -
  TRACK 04 AUDIO
    FLAGS DCP
    INDEX 01 23:18:02 rem -
  TRACK 05 AUDIO
    FLAGS DCP
    INDEX 01 35:56:22 rem -
rem - total time: 42:18:21



FILE G:\030879_2.WAV WAVE
  TRACK 01 AUDIO
    FLAGS DCP
    INDEX 01 00:00:00 rem - "say yeah"
  TRACK 02 AUDIO
    FLAGS DCP
    INDEX 01 00:36:00 rem -
  TRACK 03 AUDIO
    FLAGS DCP
    INDEX 01 12:35:09 rem -
  TRACK 04 AUDIO
    FLAGS DCP
    INDEX 01 24:01:02 rem -
  TRACK 05 AUDIO
    FLAGS DCP
    INDEX 01 37:02:01 rem - drums
  TRACK 06 AUDIO
    FLAGS DCP
    INDEX 01 39:34:17 rem -
rem - total time: 41:04:29


I hope you enjoy these tunes.  Remember to share your shortens, observe rule #5,
and avoid MP3!
Show Checksums
d1
213bb2db42cb5fbfd89dbcbbad3c7f1d *recon79-03-08_d1t4.shn
7ed5c769eaad2f37c0e340c3639b85ff *recon79-03-08_d1t2.shn
61c71a9870beaa11ee7674cdc6f1a2dc *recon79-03-08_d1t3.shn
6c1b482add1885d4e02a1223f896fb07 *recon79-03-08_d1t1.shn
3dc0c87211e72d89639b0a55e7869273 *recon79-03-08_d1t5.shn
d2
ed764cdb5b8e33fa772a2015ab79271a *recon79-03-08_d2t3.shn
cc6c77a17de714ca60e71ffbdff05526 *recon79-03-08_d2t2.shn
b3ad70995d40bc8d321b9d23d438ee30 *recon79-03-08_d2t1.shn
26e942a310a05240ce37e8bdbeff3310 *recon79-03-08_d2t4.shn
390f9172404180ba926dbd3e82436b7e *recon79-03-08_d2t5.shn
e6890bcdb2d14e1b87e8f78784ddff70 *recon79-03-08_d2t6.shn

Comments
Add Comment
Other Sources (comments)
MSR > PCM (VHS) > Sony 501?... (0)
Date User Comment
06/19/2002 Joe Jupille Like the Lai shn set for 3/9/79, the setlist here does not match the setlist from The Jerry Site. To confuse matters, comparison with the Hollister-seeded .shn set of 3/9/79 suggests that this "3/8/79" is actually a better sounding but slightly less complete version of what is really 3/9/79.
10/28/2002 GDLIVE http download
from gdlive recon79-03-08

11/23/2002 C Miller This is the correct song list for these discs:

disc 1:
(Set 1)
1. Make It Better
2. Lyinda
3. I Just Want To Stop
4. Welcome To The Basement
5. Strugglin' Man

disc 2:
1. Stage Banter
2. Another Star
(Set 2)
3. Lovely Night For Dancing
4. Nessa > Bass Solo >
5. Drums >
6. Nessa

This matches the JerrySite's list for 3/9/79, except that Soul Roach, Do I Move You?, What You Won't Do For Love, and It's No Use are missing from this .shn set. Must be mislabeled. Good stuff.
11/23/2002 Joe Jupille There is now a legitimate shn set of 3/8/79 which was seeded to tol a few weeks ago.