Browse Collections Artists Sources   Search Dates

Add Show    List Management    Help


Phish 12/11/97
War Memorial, Rochester, NY
Comments Add Comment    Source Collectors    Add to Collection    Add to Want List    History
Source # 6231 Other Sources
Entered by Terry Watts
Checksums Original SHN MD5 , Fixed FLAC FFP , Fixed WAV MD5
Disc Counts 0 / 0
Media Size
Date Circulated
Date Added

12/02/2001
Source Summary flac16, 44kHz SBD > Cass/0 > DAT(c); DAT(c) > Tascam DA-20 > Delta Dio 2496 > Soundforge > CDWave > FLAC; Source by unknown; Transfer by Brandon Johnston 
Source Information - Download Text | Download Zip
Phish
12/11/97
Rochester, NY
War Memorial

Source: DSBD > Cass/0 > D8 (@44.1)
Transfer: DA-20 > Delta Dio 2496 > Soundforge 4.5 > CDWAV > SHN

Disc 1
1. Punch you in the Eye ->
2. Down with disease ->
3. Maze
4. Dirt
5. Limb by Limb
6. Loving Cup
7. Rocky Top

Disc 2
1. Drowned ->
2. Roses are Free* ->
3. BBFCFM ->
4. Ghost ->
5. DwD Reprise ->
6. Johnny B. Goode
7. crowd noise
Encore:
8. Waste



*Ween cover first time played.


note: I removed both cassette flips using Soundforge 4.5. The first was between Maze and Dirt at 44:34.602
in set I and the second was during Ghost at 51:44.920 of set II. There was overlapping music in the Ghost so
the splice is pretty seamless. I also added fades at the start and end of each set. I also removed a small glitch
in the right channel around 10:16.600 of set II with the pencil tool. You can still slightly hear it but it is
improved.




-----

Notes:

Files renamed, SBEs fixed in SHNTOOLs, new WAV MD5 created, new FLAC files and FFP created.

Terry Watts

-----

Original SHN MD5:
56a4666454b3c036984e869fb14fe738 *ph97-12-11s1t01.shn
7026df5c56a01339a3418a06ef579987 *ph97-12-11s1t02.shn
40252a8e3dc7317559e19cdd71e8301d *ph97-12-11s1t03.shn
fe89bf8ad805194ab5554de320456751 *ph97-12-11s1t04.shn
fea618221b369c3d813ad5f2c29eb463 *ph97-12-11s1t05.shn
0ded66436484fd5fdb1b88881214a773 *ph97-12-11s1t06.shn
36b4ef57f7da60fee7829de61abd3954 *ph97-12-11s1t07.shn
f35ec3c5afe6383f711aa29c382881a8 *ph97-12-11s2t01.shn
311c1c450be7e0535b2a634d5b494f74 *ph97-12-11s2t02.shn
94fa6328745305474eb372645c2ed992 *ph97-12-11s2t03.shn
aece848fdc1ebc33b85195308b392d7d *ph97-12-11s2t04.shn
2a9e9f6a5eda203338918a56da86f461 *ph97-12-11s2t05.shn
72fb07e7f661df22cd133543ed85bcef *ph97-12-11s2t06.shn
c0e9d45387e1b7042e73652232a7b82d *ph97-12-11s2t07.shn
136b8a2efabd47d210cef3c9ed41ba4b *ph97-12-11s2t08.shn


Original WAV SHNTOOLs output:
    length     expanded size    cdr  WAVE problems  fmt   ratio  filename
     9:12.68       97532780 B   ---   --   -----    wav  1.0000  ph97-12-11s1t01.wav
    20:21.21      215433836 B   ---   --   -----    wav  1.0000  ph97-12-11s1t02.wav
    15:06.56      159950156 B   ---   --   -----    wav  1.0000  ph97-12-11s1t03.wav
     4:09.30       43994204 B   ---   --   -----    wav  1.0000  ph97-12-11s1t04.wav
    10:35.52      112136348 B   ---   --   -----    wav  1.0000  ph97-12-11s1t05.wav
     7:10.64       76002572 B   ---   --   -----    wav  1.0000  ph97-12-11s1t06.wav
     2:36.08       27538144 B   -b-   --   -----    wav  1.0000  ph97-12-11s1t07.wav
    21:51.46      231368636 B   ---   --   -----    wav  1.0000  ph97-12-11s2t01.wav
     5:10.30       54754604 B   ---   --   -----    wav  1.0000  ph97-12-11s2t02.wav
     8:02.14       85057772 B   ---   --   -----    wav  1.0000  ph97-12-11s2t03.wav
    16:37.49      175986092 B   ---   --   -----    wav  1.0000  ph97-12-11s2t04.wav
     1:11.09       12545612 B   ---   --   -----    wav  1.0000  ph97-12-11s2t05.wav
     6:09.00       65091644 B   ---   --   -----    wav  1.0000  ph97-12-11s2t06.wav
     3:23.49       35924492 B   ---   --   -----    wav  1.0000  ph97-12-11s2t07.wav
     5:53.04       62279060 B   -b-   --   -----    wav  1.0000  ph97-12-11s2t08.wav
   137:31.51     1455595952 B                            1.0000  (15 files)

Show Checksums
Original SHN MD5
56a4666454b3c036984e869fb14fe738 *ph97-12-11s1t01.shn
7026df5c56a01339a3418a06ef579987 *ph97-12-11s1t02.shn
40252a8e3dc7317559e19cdd71e8301d *ph97-12-11s1t03.shn
fe89bf8ad805194ab5554de320456751 *ph97-12-11s1t04.shn
fea618221b369c3d813ad5f2c29eb463 *ph97-12-11s1t05.shn
0ded66436484fd5fdb1b88881214a773 *ph97-12-11s1t06.shn
36b4ef57f7da60fee7829de61abd3954 *ph97-12-11s1t07.shn
f35ec3c5afe6383f711aa29c382881a8 *ph97-12-11s2t01.shn
311c1c450be7e0535b2a634d5b494f74 *ph97-12-11s2t02.shn
94fa6328745305474eb372645c2ed992 *ph97-12-11s2t03.shn
aece848fdc1ebc33b85195308b392d7d *ph97-12-11s2t04.shn
2a9e9f6a5eda203338918a56da86f461 *ph97-12-11s2t05.shn
72fb07e7f661df22cd133543ed85bcef *ph97-12-11s2t06.shn
c0e9d45387e1b7042e73652232a7b82d *ph97-12-11s2t07.shn
136b8a2efabd47d210cef3c9ed41ba4b *ph97-12-11s2t08.shn
Fixed FLAC FFP
ph1997-12-11s1t01.flac:ff1c55387399090de2ef19a7609c1b44
ph1997-12-11s1t02.flac:62edcd63a4d4fc5c4a88fa027c601464
ph1997-12-11s1t03.flac:057ae5b935cca938707cd04bbf73ac59
ph1997-12-11s1t04.flac:afff96f128246d8ceb58e29352e2e6c9
ph1997-12-11s1t05.flac:02eef1cff7ab76de8d67032e41743f20
ph1997-12-11s1t06.flac:69f7b31c5fdcc2b01bfcbb2d4ed99e71
ph1997-12-11s1t07.flac:4c82c51330a88ba041f8f7b825801efa
ph1997-12-11s2t01.flac:d93d8ac3cfb9c134a2c6df2ac513f06e
ph1997-12-11s2t02.flac:1fb88882f76c42aa266395261b1e421b
ph1997-12-11s2t03.flac:770be3b00b3f64f134a27812a7d64881
ph1997-12-11s2t04.flac:5f80f0698ea176bf2ebc39dd65a5c224
ph1997-12-11s2t05.flac:1b4a0fe4d00eb14f53b1476c139c9ab4
ph1997-12-11s2t06.flac:197a01b14ea07f44618588bcce140e59
ph1997-12-11s2t07.flac:0499294e4af219429a6612a87a767d45
ph1997-12-11s2t08.flac:8fddf45e324614321cdea0ea17e59195
Fixed WAV MD5
76410b5f90f70b95aa35f11c1f70bb08 *ph1997-12-11s1t01.wav
bec788be1f8755476bb8b48892e6841e *ph1997-12-11s1t02.wav
904312e03e7a29c0f2a8dabea1611ab5 *ph1997-12-11s1t03.wav
8becb16b2903c3744d5bbb9950920a6c *ph1997-12-11s1t04.wav
b2891edb6fe1b8fb94ff900e59d8c3cf *ph1997-12-11s1t05.wav
c1adefa935fff55bc6acec83fe3cdf26 *ph1997-12-11s1t06.wav
c5cf310f624eb4274d031202e0d86a07 *ph1997-12-11s1t07.wav
2f6545e01ca420386bed5070d9adba95 *ph1997-12-11s2t01.wav
716e47e0b50bade4918994d92b0da931 *ph1997-12-11s2t02.wav
2438686c55143bddf08d24bfca016f5a *ph1997-12-11s2t03.wav
554f4a54f73dd25765d221b7442c7e67 *ph1997-12-11s2t04.wav
fb2bebefda3fdf76bd311dbe33868374 *ph1997-12-11s2t05.wav
7b4688f6c2d07df990e96ab09863c142 *ph1997-12-11s2t06.wav
b84f54e8413259f8cc52d38c169c4fff *ph1997-12-11s2t07.wav
b2efa92fd21f994671a64a241a860a18 *ph1997-12-11s2t08.wav

Comments
Add Comment
Other Sources (comments)
unknown source (0) DFOB Schoeps MK4 > Sonosax... (1) SBD > DAT > Cass/x > DAT >... (6) SBD > DAT > Cass/x > D8 (2) SBD > DAT > CDR > EAC > SHN (3) (0) DTS-Audio-CD 5.1 Mix (0) SBD > Sony MD > CDR > Peak... (1) DTS-Audio-CD 5.1 Mix; Note:... (0) SBD + AUD Matrix Mix (NOTE:... (0) flac16, 44kHz; (FOB)... (0) flac16, 44kHz;... (2)
Date User Comment
12/07/2001 Gionni The FOB source sound much better.
01/19/2002 Mike In response to the above comment...I don't see how anyone could think that, but maybe my thinking is flawed. This sbd is mastered professionally (It's the same mix that appears on Bittersweet Motel DVD) and it is very crispy. Does not sound like a cassette transfer.
02/15/2004 Mike To update my above comment a 2 years later... The SBD had some clipping on the high end that can get annoying at high volumes, so the DAUD would be better for blasting.. but the SBD is very nice.
06/30/2012 geewiz010 FLAC fingerprints:

ph1997-12-11s1t01.flac:ff1c55387399090de2ef19a7609c1b44
ph1997-12-11s1t02.flac:62edcd63a4d4fc5c4a88fa027c601464
ph1997-12-11s1t03.flac:057ae5b935cca938707cd04bbf73ac59
ph1997-12-11s1t04.flac:afff96f128246d8ceb58e29352e2e6c9
ph1997-12-11s1t05.flac:02eef1cff7ab76de8d67032e41743f20
ph1997-12-11s1t06.flac:69f7b31c5fdcc2b01bfcbb2d4ed99e71
ph1997-12-11s1t07.flac:4c82c51330a88ba041f8f7b825801efa
ph1997-12-11s2t01.flac:d93d8ac3cfb9c134a2c6df2ac513f06e
ph1997-12-11s2t02.flac:1fb88882f76c42aa266395261b1e421b
ph1997-12-11s2t03.flac:770be3b00b3f64f134a27812a7d64881
ph1997-12-11s2t04.flac:5f80f0698ea176bf2ebc39dd65a5c224
ph1997-12-11s2t05.flac:1b4a0fe4d00eb14f53b1476c139c9ab4
ph1997-12-11s2t06.flac:197a01b14ea07f44618588bcce140e59
ph1997-12-11s2t07.flac:0499294e4af219429a6612a87a767d45
ph1997-12-11s2t08.flac:8fddf45e324614321cdea0ea17e59195