Browse Collections Artists Sources   Search Dates

Add Show    List Management    Help


Phish 11/19/98
Lawrence Joel Veterans Memorial Coliseum, Winston-Salem, NC
Comments Add Comment    Source Collectors    Add to Collection    Add to Want List    History
Source # 6366 Other Sources
Entered by Jason Sobel
Checksums SHN-md5 , FLAC-ffp
Disc Counts 2 / 3
Media Size
Date Circulated
Date Added
12/10/01
12/10/2001
Source Summary (FOB) Schoeps mk4v > kc5 > cmc6 > Oade M118 > HHB PDR-1000; Taped by Steve; Transferred by Mikey K. 
Source Information - Download Text | Download Zip
----------------------------------
----    Original Info File    ----
----------------------------------


Phish
11-19-98
Lawrence Joels Veterans Memorial Coliseum
Winston-Salem, NC

Source: Schoeps mk4v>m148>HHB fob

conversion: Dat> Rme 96/8> Soundforge> Cd Wave> shn

Transferred and seeded by: Mikey K. ([email protected])
taped by: Steve

Set I
Disc 1
1. Cities
2. The Curtain>
3. Sample in a Jar
4. Ginseng Sullivan
5. Bouncing
6. Maze
7. Something
8. Ghost
9. Golgi Apparatus

Set II
Disc 2
1. 2001>
2. Rock N' Roll>
3. Taste
4. Frankie Says
5. Gumbo>
6. Chalkdust Torture

Disc 3
1. Frankenstein
2. Been Caught Steeling
Encore
3. You Enjoy Myself*

*= w/ Heloise Williams









-------------------------------
----    Fixed Info File    ----
-------------------------------


Phish
November 19, 1998
Lawrence Joels Veterans Memorial Coliseum - Winston-Salem, NC

Source: (FOB) Schoeps MK4V(ORTF in hat)>KC5>CMC6>Oade M118>HHB PDR-1000
Taped By: Steve "the Intimidator"

Conversion: Dat> Rme 96/8> Soundforge> Cd Wave> shn
Transferred and seeded by: Mikey K. ([email protected])

Updates:
I got this show from this torrent (http://bt.etree.org/details.php?id=2509)
which was a minor fix done by matt vernon.  His notes include the following.

This is a minor fix of shnid 6366 -
a fade was undone so set 2 can be included on one disk
notes/edits added by Matt Vernon 2/13/2004
- undid fades so set 2 is now continuous

Additional Updates by [email protected]
SHN>MKWACT>WAV>FLAC V1.71 (with ID Tags) 3/2005
Updated text file with correct lineage thanks to CarrionCrow & Jimbo.
Orgional source: http://db.etree.org/shninfo_detail.php?shnid=6366

Set I
Disc 1
01. Crowd
02. Cities
03. The Curtain->
04. Sample in a Jar
05. Ginseng Sullivan
06. Bouncing Around the Room
07. Maze
08. Something
09. Ghost->
10. Golgi Apparatus

Set II
Disc 2
1. 2001->
2. Rock N' Roll->
3. Taste
4. Frankie Says
5. Gumbo->
6. Chalk Dust Torture
7. Frankenstein
8. Been Caught Stealing

Disc 3
Encore
1. You Enjoy Myself*

*= w/ Heloise Williams

Shntool Output:
    length     expanded size   cdr  WAVE problems filename
     0:42.09        7430012    ---   --   ---xx   ph1998-11-19d1t01.flac
     7:06.52       75268748    ---   --   ---xx   ph1998-11-19d1t02.flac
     6:27.44       68370332    ---   --   ---xx   ph1998-11-19d1t03.flac
     5:04.52       53747948    ---   --   ---xx   ph1998-11-19d1t04.flac
     3:41.68       39144380    ---   --   ---xx   ph1998-11-19d1t05.flac
     3:49.08       40414460    ---   --   ---xx   ph1998-11-19d1t06.flac
    14:18.68      151511180    ---   --   ---xx   ph1998-11-19d1t07.flac
     3:24.09       36006812    ---   --   ---xx   ph1998-11-19d1t08.flac
    17:55.58      189766460    ---   --   ---xx   ph1998-11-19d1t09.flac
     5:00.65       53072924    ---   --   ---xx   ph1998-11-19d1t10.flac
    12:19.24      130416092    ---   --   ---xx   ph1998-11-19d2t01.flac
    10:42.70      113413484    ---   --   ---xx   ph1998-11-19d2t02.flac
     9:13.32       97624508    ---   --   ---xx   ph1998-11-19d2t03.flac
     5:32.06       58578956    ---   --   ---xx   ph1998-11-19d2t04.flac
    10:29.46      111063836    ---   --   ---xx   ph1998-11-19d2t05.flac
     6:20.10       67055564    ---   --   ---xx   ph1998-11-19d2t06.flac
     5:16.06       55756556    ---   --   ---xx   ph1998-11-19d2t07.flac
     6:29.00       68619644    ---   --   ---xx   ph1998-11-19d2t08.flac
    23:36.64      249932972    ---   --   ---xx   ph1998-11-19d3t01.flac
   157:31.16     1667194868 B                     (totals for 19 files, 0.5179 overall compression ratio)
Show Checksums
SHN-md5
639cd6d57929c1f2400884daa0f2aa56 *ph98-11-19d1t07.shn
46b8401456a0ff7823f297abf7a4c5b7 *ph98-11-19d1t02.shn
79922f06130fba3ae469160a15913930 *ph98-11-19d1t03.shn
1cbfa1542df848052528b4a548fbb3fd *ph98-11-19d1t04.shn
d73bce0bb0ffe2ba9d2c1bfaee48f19f *ph98-11-19d1t05.shn
2e77891aa90c0bb66984402c8a14639a *ph98-11-19d1t06.shn
e0d0aba4033bb75e258e969f2b196e7a *ph98-11-19d1t01.shn
10509a37bd732df0214985832f7ac035 *ph98-11-19d1t08.shn
0b3bdc2909a02bacbe0faf1d5cc03710 *ph98-11-19d1t09.shn
8abe3dc432122eee57d092113a317d3a *ph98-11-19d1t10.shn
b7d8f56ca593fd9f5f7a20431d8eb03f *ph98-11-19d2t06.shn
23b37508e791ab22236ea4470025a78f *ph98-11-19d2t02.shn
b00a8ec0b0d7970de3ff790a8dc6144c *ph98-11-19d2t03.shn
f05d4cda137442a35d4e286c5dfd572a *ph98-11-19d2t04.shn
90f6f9effba2afd007ddb2e29775cf20 *ph98-11-19d2t05.shn
6ed09e75bface8bdcc57e1952700fd31 *ph98-11-19d2t01.shn
8e3e2c72e3cf03d4fe4c90e6de8d5443 *ph98-11-19d3t02.shn
50a34e409a58937dcf8797c029d3b2c2 *ph98-11-19d3t01.shn
1d6224f2be282109b1907a7afdb44ed8 *ph98-11-19d3t03.shn
FLAC-ffp
ph1998-11-19d1t01.flac:beeeb5b7fa3834ef546c54da3937c2d2
ph1998-11-19d1t02.flac:f446d804b47b329196655a474c26b91b
ph1998-11-19d1t03.flac:9f50e42853906604b495352604d83b13
ph1998-11-19d1t04.flac:a32f5e6c53f8efd3833070de872f79fa
ph1998-11-19d1t05.flac:bc81a842ae927d937af3d420e385aee0
ph1998-11-19d1t07.flac:ca1cb05eeca8bf19d28977c158ec38eb
ph1998-11-19d1t06.flac:d0e3be4d4f1de349f03e3776844dd160
ph1998-11-19d1t08.flac:992d9ee1d169054e05cd21d39c1eeba5
ph1998-11-19d1t09.flac:dee3e515de21df3fd528c6868373158b
ph1998-11-19d1t10.flac:b810661eca20f866f95fdeac0689bea3
ph1998-11-19d2t01.flac:0d5aba545fc7b45d0929f28698f47740
ph1998-11-19d2t02.flac:b99086fecc78287a404632313450bbe9
ph1998-11-19d2t03.flac:b0bcdb481eb6b3bdca97217ea68a9d91
ph1998-11-19d2t04.flac:95415704310bcf8fadd207b30c9f3c4a
ph1998-11-19d2t05.flac:eb1df79b63e98d1c6790671461f894d3
ph1998-11-19d2t06.flac:ec7da96b2047827d0ffe2ae11a11a644
ph1998-11-19d2t07.flac:197c7c1d4948be039ef951992e264cfa
ph1998-11-19d2t08.flac:58b07d4cf201fb5f036bf9b2aaa78590
ph1998-11-19d3t01.flac:54fbc7ef833cf5e0a7c6341a0d402ef8

Comments
Add Comment
Other Sources (comments)
Schoeps CMC6/mk41 > Sonosax... (0) B+K 4011 > Lunatec V2 > D8... (2) flac16; Schoeps... (0) flac16; Shure... (0) flac16; NAK 300 +... (0) flac16 Schoeps... (0) flac16, 48kHz;... (0) flac16 FOB/DFC/ORTF... (0)
Date User Comment
12/21/2001 John Wonderful sound. Full rich bass and great stereo seperation.
12/24/2002 mica The shn's I have for this show have Gumbo>Chalkdust split between disc 2 and 3. And Gumbo has a fade out added to it.
Also it has a dat>CD>SHN lineage, which I haven't seen noted, but is still the same FOB schoeps mk4v. You may want to look out for this if trading.
07/13/2004 car disc 1 is actually 10 tracks, Ghost is split over tracks 8 and 9. Golgi is track 10.

otherwise the tracking is as noted in the text file.
07/13/2004 car http://bt.etree.org/details.php?id=5951

CarrionCrow 2004-07-13 19:08:45
Here is the full taping rig info for this shn: Schoeps MK4V's->KC5->CMC6-> Oade P/S-> HHb .....the mics were on the ORTF bar in a hat w/ the caps out. Hat was worn by Steve "the Intimidator." Big group effort here. Lots of thanks to all involved this night. But, biggest props goes to "the Intimidator" for standing tall and steady on the Crow's B'day.
I know all the info above is correct cause I made this tape.
BTW...I do not think the Oade was an M148. This was an older model Oade w/ only plugs for mic cables, batt charger and on/off switch. No knobs to turn or gauges to look at.
06/07/2005 CrazyED thepollock 2004-07-14 08:29:39
CarrionCrow - Long time no talk!!!!!!!!!!

The Oade you are talking about is indeed the M148. It looks like a big brick with nothing but XLR plugs and a connector for the recharger.....and a little nipple to push to see how much juice you have left. It could be an M118, though, depending on how much power was being put out. If it is the one that belonged to Slade (and eventually was sold to me), it was an M118.

CarrionCrow 2004-07-14 12:32:51
Yeah that was the one from Slade.

CarrionCrow 2004-07-14 12:36:21
I just couldn't remember if we used an SBM-1 that show. My memory told me we didn't use it until the next show....is that right Jimbo??

thepollock 2004-07-15 00:11:13
I'm pretty sure that's right. My list says the SBM was not run at Winston and was run for the first night of Hampton (but not the second night). Is this right?

According to this dialog from bt.etree.org, the full lineage should read...
(FOB/DFC/ORTF in Hat)MK4V>KC5>CMC6>Oade M118>HHB PDR-1000