Browse Collections Artists Sources   Search Dates

Add Show    List Management    Help


Phil Lesh & Friends 11/16/01
Memorial Auditorium, Burlington, VT
Comments Add Comment    Source Collectors    Add to Collection    Add to Want List    History
Source # 6591 Other Sources
Entered by Matt Vernon
Checksums shn-md5 , flac-md5
Disc Counts 2 / 3
Media Size
Date Circulated
Date Added
12/01
12/25/2001
Source Summary Neumann KM140>EAA PSP3>AD1000>D8 [@44.1]. Transfer Tascam DA302>Coax Cable>MAudio Dio24/48>SHN. Taped and transferred by Blane Harvey ([email protected]
  Archive
Source Information - Download Text | Download Zip
Phil and Friends
Nov. 16th, 2001
Memorial Auditorium, Burlington, VT

Source Info: Neumann KM140>EAA PSP3>AD1000>D8 [@44.1]
Transfer Info:  Tascam DA302>Coax Cable>MAudio Dio24/48>SHN
Taped and transferred by Blane Harvey ([email protected])

****WARNING- PLEASE DO NOT SHARE/COPY THIS SHOW IF THE MD5s DO NOT CHECK OUT*****
****PLEASE DO NOT CONVERT THIS TO MP3******

Fits on 3x74min cds.
D1:
1. Crowd
2. Shakedown Street->
3. Bertha
4. Broken Arrow->
5. Jam->
6. Uncle John's Band>
7. Into the Mystic
8. Not Fade Away

D2:
1. Crowd
2. Jam->
3. Playing In the Band>
4. Blue Sky
5. Scarlet Begonias->
6. Jam->
7. Playing In the Band Reprise
8. King Soloman's Marbles

D3:
1. Strawberry Fields->
2. Space Jam->
3. Truckin' Jam->
4. Mountain Jam>
5. St. Stephen>
6. Liberty
7. Crowd/Donor Rap
ENCORE
8. Midnight Hour (with Page McConnel on B3, 3rd Stone teases)


Show Checksums
shn-md5
6043ffb044330b3e41e6ba625a6e52c4 *phil01-11-16_d1_t8.shn
339736032809f0385854463eb89d643e *phil01-11-16_d1_t2.shn
bdcc682dcf7e9e65f801d930f6470f49 *phil01-11-16_d1_t3.shn
2606e3568354b846c563b6875d810f5f *phil01-11-16_d1_t4.shn
d2997ced2bac296b65de922f8026fcab *phil01-11-16_d1_t5.shn
b5024c9fb0bc1af6e6f2c100037e7a38 *phil01-11-16_d1_t6.shn
ec68fab935c463364c1afce9ccfb2237 *phil01-11-16_d1_t7.shn
3cd465df24126cde68a95faf4db81058 *phil01-11-16_d1_t1.shn
a05e8745715cd006f0a0c6717f143179 *phil01-11-16_d2_t1.shn
feed493a089e2287a731a9cc05808dca *phil01-11-16_d2_t2.shn
6715237617b9e718cba3091afff35a40 *phil01-11-16_d2_t3.shn
bcdc5da1c45285ecbb60a64513d1add0 *phil01-11-16_d2_t4.shn
83d24fd874312188724a14eadd9be2d0 *phil01-11-16_d2_t5.shn
967086171cc9ddbd3f73692dbe31d70c *phil01-11-16_d2_t6.shn
48967b499fb863b879bf4fcd6d1881cd *phil01-11-16_d2_t7.shn
797a12b09fd6f19f318c9e5d71778585 *phil01-11-16_d2_t8.shn
672c8bfb354adf7beb227b957f8f151b *phil01-11-16_d3_t1.shn
9abf0f01b57b18d64b693b32d6a9bb8a *phil01-11-16_d3_t2.shn
d08d49a4d33ced027f1228722150e899 *phil01-11-16_d3_t3.shn
315538f4d1de92a44f8bb6612a583c4d *phil01-11-16_d3_t4.shn
e1224af03e1b11a77f7eb873d91c1195 *phil01-11-16_d3_t6.shn
78c0429a54f7c0b3ba9b8fe804e0a569 *phil01-11-16_d3_t7.shn
e1b7b79ae493fdfed4e74eb8d255d787 *phil01-11-16_d3_t8.shn
e549eaf8e76c52ee7b10d5f4b9c80b58 *phil01-11-16_d3_t5.shn
flac-md5
2b0bde2789a075a5b7da9d026dea4bac *phil01-11-16_d1_t1.flac
918678ef66b1fdefc2ed74dbd35784d7 *phil01-11-16_d1_t2.flac
cc648602440d57636c9bd39edb7d7c5c *phil01-11-16_d1_t3.flac
83780619e978feaf2794e7db914bff2e *phil01-11-16_d1_t4.flac
93b5b34e4bb8ac613df5972dd781e11a *phil01-11-16_d1_t5.flac
787a4540184544437119226a684a5ba2 *phil01-11-16_d1_t6.flac
db391e15491b57fb67a1fb35edec2078 *phil01-11-16_d1_t7.flac
7297d7f41547e516c6bd9196ef6a69f8 *phil01-11-16_d1_t8.flac
457f43fd94335f0345fce7f488abc7f2 *phil01-11-16_d2_t1.flac
4adccf55e88582bb6da8e2f70f9db8af *phil01-11-16_d2_t2.flac
353387bb04eb71eff6a470af8ee98252 *phil01-11-16_d2_t3.flac
e21579badb56f6d76d57f00d54102b8a *phil01-11-16_d2_t4.flac
62b1d80ea4741727bfc10767187385bd *phil01-11-16_d2_t5.flac
6bd6f2d14d9ae775b09baf9bbda5b028 *phil01-11-16_d2_t6.flac
b9dda966d462d33ee5e71e22240b598f *phil01-11-16_d2_t7.flac
c02972f06844112d2d484fba28601c93 *phil01-11-16_d2_t8.flac
79fc64c0ea8d9767717902da91f40873 *phil01-11-16_d3_t1.flac
c4af95a131415c02dde3700f6ccb284c *phil01-11-16_d3_t2.flac
ef288b692ceaf49b98f02fd7a6179d15 *phil01-11-16_d3_t3.flac
58d04f1e17839c878ae5c81fc21c70f4 *phil01-11-16_d3_t4.flac
7165fbe1dee4219442386b274736e6b9 *phil01-11-16_d3_t5.flac
341667c52dafa6a74497ee238de54d27 *phil01-11-16_d3_t6.flac
cc73b05997dda51e8fe0d50457cd994d *phil01-11-16_d3_t7.flac
76f8bf68638efe0d1bb5f76823a64128 *phil01-11-16_d3_t8.flac

Comments
Add Comment
Other Sources (comments)
Earthworks SR78>MP2>D8 >... (0) Source: Earthworks SR78 >... (0) Recordist : Ray Ackerman... (0)
Date User Comment
02/13/2012 TWATTS Pulled from Archive:


length expanded size cdr WAVE problems filename
1:56.18 20504780 --- -- ---xx phil01-11-16_d1_t1.flac
14:06.62 149380268 --- -- ---xx phil01-11-16_d1_t2.flac
9:00.54 95383052 --- -- ---xx phil01-11-16_d1_t3.flac
8:44.11 92459516 --- -- ---xx phil01-11-16_d1_t4.flac
3:31.61 37363916 --- -- ---xx phil01-11-16_d1_t5.flac
17:27.40 184784924 --- -- ---xx phil01-11-16_d1_t6.flac
5:44.38 60771020 --- -- ---xx phil01-11-16_d1_t7.flac
10:06.73 107070140 --- -- ---xx phil01-11-16_d1_t8.flac
1:35.53 16881820 -b- -- ---xx phil01-11-16_d2_t1.flac
4:17.47 45445388 --- -- ---xx phil01-11-16_d2_t2.flac
15:53.04 168118652 --- -- ---xx phil01-11-16_d2_t3.flac
10:14.09 108330812 --- -- ---xx phil01-11-16_d2_t4.flac
9:06.01 96316796 --- -- ---xx phil01-11-16_d2_t5.flac
6:29.50 68737244 --- -- ---xx phil01-11-16_d2_t6.flac
5:49.18 61605980 --- -- ---xx phil01-11-16_d2_t7.flac
7:56.26 84027596 --- -- ---xx phil01-11-16_d2_t8.flac
6:26.67 68248028 --- -- ---xx phil01-11-16_d3_t1.flac
4:19.56 45819356 --- -- ---xx phil01-11-16_d3_t2.flac
3:51.68 40908380 --- -- ---xx phil01-11-16_d3_t3.flac
3:08.16 33200876 --- -- ---xx phil01-11-16_d3_t4.flac
10:56.11 115744316 --- -- ---xx phil01-11-16_d3_t5.flac
6:02.24 63913292 --- -- ---xx phil01-11-16_d3_t6.flac
8:52.74 94018892 --- -- ---xx phil01-11-16_d3_t7.flac
11:29.60 121680324 -b- -- ---xx phil01-11-16_d3_t8.flac
187:08.40 1980715368 B (totals for 24 files, 0.5433 overall compression ratio)
02/13/2012 TWATTS New "Fixed" FFP:


phil01-11-16_d1_t1.flac:e9a00d8b4ae08e30861f76f01e54f05e
phil01-11-16_d1_t2.flac:6965e7a525fc479817970e23e133022b
phil01-11-16_d1_t3.flac:a4761a86ecf45d9baa7f5f29c7be6c86
phil01-11-16_d1_t4.flac:d2c6b49e44b18a882d7a5cf6ad0f289f
phil01-11-16_d1_t5.flac:77ee01299a639a904fc75bb0eb65feb0
phil01-11-16_d1_t6.flac:51f0effa5b01bb9dc1331c9987dd946e
phil01-11-16_d1_t7.flac:cd2443891eb87a122b8c3db74d1ffd60
phil01-11-16_d1_t8.flac:531a671c4c3a428d25b6d7cb30048458
phil01-11-16_d2_t1.flac:8506f23c2c7f6b000d3042d1c3f82d6c
phil01-11-16_d2_t2.flac:63cec0af55c9f377a024f1da45114d69
phil01-11-16_d2_t3.flac:4143b8cdfc63efe179fecaffd8aa2875
phil01-11-16_d2_t4.flac:43404d950ca53af40ec4420419246437
phil01-11-16_d2_t5.flac:30f70edc9de888440f906e1cd6704575
phil01-11-16_d2_t6.flac:feddc3f199b6a30703d892b7d8666127
phil01-11-16_d2_t7.flac:5a9b9fdf4bf790a1ed14db59034fd12a
phil01-11-16_d2_t8.flac:85e86d886ab5da6caca940f9e47324f7
phil01-11-16_d3_t1.flac:1a49940d1b46fd7af1ee2d04458cbaeb
phil01-11-16_d3_t2.flac:cf10b48549412dc4d8c6ee2e745e4f48
phil01-11-16_d3_t3.flac:db0c9204ad8986c61837d7fe46a2da33
phil01-11-16_d3_t4.flac:4ccbaa13328a0b198349c68b35d825ee
phil01-11-16_d3_t5.flac:9bc7f7c0dd0f67ef3910f83be3d87f2e
phil01-11-16_d3_t6.flac:4168c73b34682443666dbae7bde5ec6c
phil01-11-16_d3_t7.flac:cc635497508a3db4282ac7112c461bad
phil01-11-16_d3_t8.flac:cf8639ae9e70262e066100235e2beead