Browse Collections Artists Sources   Search Dates

Add Show    List Management    Help


Phish 08/03/03
Loring Air Force Base, Limestone, ME
Comments Add Comment    Source Collectors    Add to Collection    Add to Want List    History
Source # 73817 Other Sources
Entered by Jason Sobel
Checksums all_ffp
Disc Counts 2 / 4
Media Size
Date Circulated
Date Added

07/06/2006
Source Summary AKG CK61/480 (DIN/OTS) > Graham Patten [email protected] > Sony D-8; Tascam DAP-1 > Hosa ODL-276 > Nomad JB3 > Soundforge 7.0(48>44.1k) > CD Wave > FLAC Frontend; Taped & Transferred by Bean 
Source Information - Download Text | Download Zip
Phish
08/03/2003
IT
Limestone, ME

AKG CK61/480 (DIN/OTS) >>> Graham Patten [email protected] >>> Sony D-8

Tascam DAP-1 > Hosa ODL-276 > Nomad JB3 > Firewire > PC > Soundforge 7.0(48>44.1k) > CD Wave > FLAC Frontend

Taped, transferred and tracked by Bean ([email protected])

~d1: set 1~

01. Daniel Saw The Stone
02. Saw It Again
03. Punch You In The Eye
04. Army Of One
05. Chalkdust Torture
06. Wilson*
07. Mike's Song >>>
08. I Am Hydrogen >>>
09. Weekapaug Groove

~d2: set 2~

01. crowd
02. Mellow Mood
03. Ghost** >>>
04. Mountains In The Mist
05. Pebbles And Marbles

~d3: set 2(cont.)~

01. You Enjoy Myself >>>
02. Chariots Of Fire^
03. Lovin' Cup
set 3:
04. crowd
05. 46 Days

~d4: set 3(cont.)~

01. Julius
02. The Lizards
03. Secret Smile
04. Run Like An Antelope^^
05. E: Good Times Bad Times#

* - Trey said something to the effect of: "Hey, Kevin, there's a post-able version of 'Wilson.' Ladies and gentlemen, the Shortest 'Wilson' Ever! I'd like to dedicated that to our archivist, Kevin Shapiro... And now: the longest 'Bittersweet Motel' ever - I'm kidding!" Then the crowd started an enormous chant for 'Fluffhead.' After conferring with the band, Trey said, "Mike says no" - and the band launched into 'Mike's Song';
** - with massive glowstick war;
^ - Phish played the song in the background as the winners from the '100th Running of the First Annual Runaway Jim 5K' were brought up on stage and announced by Trey with photos on the video screen (the women's second-place finisher was actually Trey's neighbor "from right down the road" and the men's winner, from nearby Presque Isle, had a time of 15min for the 5k);
^^ - after the "downshift," Trey thanks the crew and the crowd; when the band returns to the song, they skip the "Rye rye rocco/Marco/Spike" lyrics section;
# - with fireworks behind the stage during the close of the song; thanks to James Dean Young, Maria Valiente, and Andrew Saskin for corrections.

~~~~~~~~~~~~~~~~~~~~~~~~~~~~~~~~~~~~~~~~~~~~~~~~~~~~

SHN Tool Output:

length expanded size cdr WAVE problems filename
3:39.08 38650460 --- -- ---xx ph2003-08-03d1t01.flac
6:49.21 72197036 --- -- ---xx ph2003-08-03d1t02.flac
8:41.45 92010284 --- -- ---xx ph2003-08-03d1t03.flac
4:55.33 52115660 --- -- ---xx ph2003-08-03d1t04.flac
25:47.45 272996684 --- -- ---xx ph2003-08-03d1t05.flac
4:50.66 51311276 --- -- ---xx ph2003-08-03d1t06.flac
8:13.68 87125180 --- -- ---xx ph2003-08-03d1t07.flac
3:07.05 32998604 --- -- ---xx ph2003-08-03d1t08.flac
13:51.01 146590796 --- -- ---xx ph2003-08-03d1t09.flac
2:12.16 23322476 --- -- ---xx ph2003-08-03d2t01.flac
3:08.71 33330236 --- -- ---xx ph2003-08-03d2t02.flac
31:44.57 335999708 --- -- ---xx ph2003-08-03d2t03.flac
7:35.54 80389052 --- -- ---xx ph2003-08-03d2t04.flac
12:00.15 127043324 --- -- ---xx ph2003-08-03d2t05.flac
22:28.57 237921308 --- -- ---xx ph2003-08-03d3t01.flac
3:35.26 37987196 --- -- ---xx ph2003-08-03d3t02.flac
7:24.48 78434540 --- -- ---xx ph2003-08-03d3t03.flac
1:11.52 12646748 --- -- ---xx ph2003-08-03d3t04.flac
38:29.40 407401724 --- -- ---xx ph2003-08-03d3t05.flac
8:58.31 94976156 --- -- ---xx ph2003-08-03d4t01.flac
11:15.56 119201756 --- -- ---xx ph2003-08-03d4t02.flac
3:21.35 35538764 --- -- ---xx ph2003-08-03d4t03.flac
17:01.12 180132668 --- -- ---xx ph2003-08-03d4t04.flac
9:55.18 105000380 --- -- ---xx ph2003-08-03d4t05.flac
260:19.55 2627.68 MB (totals for 24 files, 0.5098 overall compression ratio)
Show Checksums
all_ffp
ph2003-08-03d1t01.flac:a6ec7e531d53fc3bc67512d59edbd231
ph2003-08-03d1t02.flac:e55962fa57127ad6f31d20ee762c0d61
ph2003-08-03d1t03.flac:23905caef8c22d2d9ea216c5a1640409
ph2003-08-03d1t04.flac:a5c61624a30d9984a5c9d8da8b4e20eb
ph2003-08-03d1t05.flac:7443d3098a220d88777cf58d16a700b7
ph2003-08-03d1t06.flac:3a2d4c726c9ef5c485b12bdc84632785
ph2003-08-03d1t07.flac:b536b70463aeaf7b2146d684c9acfac5
ph2003-08-03d1t08.flac:8da54a87928d254a7df6b42c0c5deb1b
ph2003-08-03d1t09.flac:56f9ab224b55a71c323a07f81dea612b
ph2003-08-03d2t01.flac:4c873d29dc78bdc58336472a55ecbe92
ph2003-08-03d2t02.flac:db99e10f2b33236b217f973a9d5bcbd0
ph2003-08-03d2t03.flac:950232cf3e82357a80b1913796e86e53
ph2003-08-03d2t04.flac:cc3b4e6624b52bac15dbd7f0c9b6f30a
ph2003-08-03d2t05.flac:bfe427ae5d939a50a52a034181e89380
ph2003-08-03d3t01.flac:1140eba7bc8511534bb6b33114752600
ph2003-08-03d3t02.flac:a9af43370899af712f3649c21e0b581d
ph2003-08-03d3t03.flac:3a4b2f8374036086fc40f39bcfc1481a
ph2003-08-03d3t04.flac:41bed8d159fbbedcf3246bbd104353ef
ph2003-08-03d3t05.flac:4a2c4ea7bdc246efae0e37d9a352f733
ph2003-08-03d4t01.flac:bdc9a6c4479ce235b04063bf3888707c
ph2003-08-03d4t02.flac:4aa863dbc7b98b2df403858aadb4a036
ph2003-08-03d4t03.flac:b81a9e7df4c3aba3147d746493aa3c04
ph2003-08-03d4t04.flac:6030fd5494c155d29e662e78f22a73a4
ph2003-08-03d4t05.flac:ea519cd1e9f004c4a2094148110e23f9

Comments
Add Comment
Other Sources (comments)
Nak 300 (2xCP-4 + 1xCP-2)... (1) FOB MBHO603 > KA200... (3) FOB Schoeps CMC6/mk4v >... (0) LivePhish FLAC download;... (2) Set 1: Audio Technica 4051a... (0) Nakamichi CM700/cp701 >... (0) flac16 44.1kHz FOB;... (0)
Date User Comment