Browse Collections Artists Sources   Search Dates

Add Show    List Management    Help


Drive-By Truckers 04/28/06
Gypsy Ballroom, Dallas, TX
Comments Add Comment    Source Collectors    Add to Collection    Add to Want List    History
Source # 73962 Other Sources
Entered by Kyle pike
Checksums
Disc Counts 0 / 0
Media Size
Date Circulated
Date Added

07/07/2006
Source Summary [16 Bit] Schoeps MK4 > KC5 > CMC6 > Oade M148 > 722 (Mitch Hibbs)  
Source Information - Download Text | Download Zip
Drive By Truckers
Gypsy Ballroom, Dallas,TX
4/28/06

Source: fob/dfc/ortf mk4>kc5>cmc6>m148>722(@24bit/192khz)
Transfer: 722>IEEE1394>CDWav>Wavelab5(UV22HR dither/resample)>flac(level6)
Recorded and seeded by Mitchell Hibbs

Note: This is a 16bit/44.1khz fileset.

01 Feb 14
02 Where The Devil Don\'t Stay
03 John Henry
04 Wednesday
05 Space City
06 Putting People On The Moon
07 Easy On Yourself
08 Aftermath USA
09 Marry Me
10 Tales Facing Up
11 Outfit
12 Sinkhole
13 Daddy\'s Cup
14 Ronnie and Neil
15 Dead Drunk and Naked
16 Guitar Man
17 Never Gonna Change
18 A Blessing and A Curse
19 Women Without Whiskey
20 Lookout Mountain
21

22 E: Grandaddy
23
24 Bulldozers and Dirt
25 Goddamn Lonely Love
26 Zip City
27 Let There Be Rock
28 Rebels

ffp
-------
DBT2006-04-28T01.flac:d78a4b7872bbe29ed7419e2eb352152a
DBT2006-04-28T02.flac:7b54499fe50f33a1aa24dc5cffde9568
DBT2006-04-28T03.flac:0dd89772790c7bfa19b86a34faedbf05
DBT2006-04-28T04.flac:b14c44d9c7e1d2b7058128c8266cfcd1
DBT2006-04-28T05.flac:9a3405a0167b370acecf03c4d9df03b6
DBT2006-04-28T06.flac:b1639d3654e64f8ac7245a1931e643f7
DBT2006-04-28T07.flac:46b3f531737fa5a7cad28905dcbe89ba
DBT2006-04-28T08.flac:cac945ef0bbf2bdd7ced7d60f79333c6
DBT2006-04-28T09.flac:904a3f27b18810b14cac4db52d23fc80
DBT2006-04-28T10.flac:439e8b77aa9a0c0dc5299df793e48297
DBT2006-04-28T11.flac:1f2fd3a0e0bd2a50e2b750c9ebc90609
DBT2006-04-28T12.flac:38f55e7c5a229f6055abe4a35e74ae7d
DBT2006-04-28T13.flac:28836bf203a1b3baa856f35806d29843
DBT2006-04-28T14.flac:91875440f8c154b06f02216ce4e6f806
DBT2006-04-28T15.flac:4eae8df000d0a84a0eba4a22f0c08b0a
DBT2006-04-28T16.flac:ad366289682cf7a99c74c0aa5e2c7a56
DBT2006-04-28T17.flac:2a3921e1e4552bd0a2f11eee5bf7afea
DBT2006-04-28T18.flac:fb8935f72342ba7be63dfbb95e207626
DBT2006-04-28T19.flac:ce7f1c5b3baae99b5f38177f4c282e8f
DBT2006-04-28T20.flac:58350d3217b2e348bc424f257b0f511e
DBT2006-04-28T21.flac:6ad65f62fb6d9b22866e30c1427a7dd2
DBT2006-04-28T22.flac:02cbe43dec68a3eee865ce3d4b10f9c9
DBT2006-04-28T23.flac:deebd33b33d7314958f15da7011d6ce7
DBT2006-04-28T24.flac:d5e7c2e52105874c2f25b647f10404c4
DBT2006-04-28T25.flac:79acc50948f1c01073b4d8d173f74d11
DBT2006-04-28T26.flac:0d3aaef315436577c1e2563adb618896
DBT2006-04-28T27.flac:dd2de653fc08bfbac45a3024f8d8617f
DBT2006-04-28T28.flac:20383706a5185e218ddbd3e578357f90


shntool
-------
    length     expanded size   cdr  WAVE problems filename
     4:20.53       45988700    ---   --   -----   DBT2006-04-28T01.wav
     5:26.28       57572300    ---   --   -----   DBT2006-04-28T02.wav
     4:29.00       47451644    ---   --   -----   DBT2006-04-28T03.wav
     4:44.56       50229356    ---   --   -----   DBT2006-04-28T04.wav
     5:02.51       53392796    ---   --   -----   DBT2006-04-28T05.wav
     5:20.64       56598572    ---   --   -----   DBT2006-04-28T06.wav
     3:44.25       39572444    ---   --   -----   DBT2006-04-28T07.wav
     4:36.69       48848732    ---   --   -----   DBT2006-04-28T08.wav
     4:59.29       52811852    ---   --   -----   DBT2006-04-28T09.wav
     6:17.24       66559292    ---   --   -----   DBT2006-04-28T10.wav
     4:39.66       49370876    ---   --   -----   DBT2006-04-28T11.wav
     3:48.57       40353308    ---   --   -----   DBT2006-04-28T12.wav
     7:25.70       78662684    ---   --   -----   DBT2006-04-28T13.wav
     5:22.01       56803196    ---   --   -----   DBT2006-04-28T14.wav
     5:40.32       60051308    ---   --   -----   DBT2006-04-28T15.wav
     3:53.23       41155340    ---   --   -----   DBT2006-04-28T16.wav
     5:54.00       62445644    ---   --   -----   DBT2006-04-28T17.wav
     5:24.61       57297116    ---   --   -----   DBT2006-04-28T18.wav
     4:30.05       47639804    ---   --   -----   DBT2006-04-28T19.wav
     5:23.30       57047804    ---   --   -----   DBT2006-04-28T20.wav
     3:56.53       41755100    ---   --   -----   DBT2006-04-28T21.wav
     3:06.08       32829260    ---   --   -----   DBT2006-04-28T22.wav
     1:13.16       12914876    ---   --   -----   DBT2006-04-28T23.wav
     5:41.33       60230060    ---   --   -----   DBT2006-04-28T24.wav
     6:01.73       63852140    ---   --   -----   DBT2006-04-28T25.wav
     5:32.71       58731836    ---   --   -----   DBT2006-04-28T26.wav
     5:58.73       63322940    ---   --   -----   DBT2006-04-28T27.wav
     5:14.12       55417868    ---   --   -----   DBT2006-04-28T28.wav
   137:50.33     1458906848 B                     (totals for 28 files)
Show Checksums

Comments
Add Comment
Other Sources (comments)
[16 Bit] 4011 > V2 > AD2K+... (0)
Date User Comment