Browse Collections Artists Sources   Search Dates

Add Show    List Management    Help


The Big Wu 10/07/05
Rex's Bar, West Chester, PA
Comments Add Comment    Source Collectors    Add to Collection    Add to Want List    History
Source # 73974 Other Sources
Entered by
Checksums flac.ffp
Disc Counts 0 / 0
Media Size
Date Circulated
Date Added

07/07/2006
Source Summary Source: (dfc/nos) Schoeps CMC6xt/mk21's > Lunatec V3 > JB3
Conversion: Wavelab 5 > CDWave > FLAC Frontend (level 6) > flac 
Source Information - Download Text | Download Zip
The Big Wu
Rex's Bar
West Chester, PA
10/7/05

Source: (dfc/nos) Schoeps CMC6xt/mk21's > Lunatec V3 > JB3

Conversion: Wavelab 5 > CDWave > FLAC Frontend (level 6) > flac
Taped by Graham Munda and Chris Imburgia
Converted and seeded by Graham Munda ([email protected])


Disc 1

01) Shoot the Moon
02) Precious Hands
03) Pinnacle >
04) Dogs Dead
05) Julia
06) Save Our Ship
07) Roll With the Changes >
08) The Chicken
09) Rock & Roll Band
10) Picture Book

Disc 2

(set I cont.)
01) Ray Charles Can See
02) Flat Iron Suite
03) Jazz 88
04) Deal
(encore)
05) Red Sky


*******************Shntool Output***********************
length     expanded size   cdr  WAVE problems filename
10:58.68      116231180   ---   --   ---xx   wu2005-10-07d1t01.flac
7:04.09       74814812    ---   --   ---xx   wu2005-10-07d1t02.flac
6:23.32       67636508    ---   --   ---xx   wu2005-10-07d1t03.flac
5:01.68       53256380    ---   --   ---xx   wu2005-10-07d1t04.flac
4:19.41       45784076    ---   --   ---xx   wu2005-10-07d1t05.flac
15:33.72      164750588   ---   --   ---xx   wu2005-10-07d1t06.flac
5:45.65       61010924    ---   --   ---xx   wu2005-10-07d1t07.flac
9:01.59       95571212    ---   --   ---xx   wu2005-10-07d1t08.flac
5:33.27       58804748    ---   --   ---xx   wu2005-10-07d1t09.flac
3:22.05       35644604    ---   --   ---xx   wu2005-10-07d1t10.flac
13:07.31      138899756   ---   --   ---xx   wu2005-10-07d2t01.flac
6:53.62       72999068    ---   --   ---xx   wu2005-10-07d2t02.flac
15:06.64      159968972   ---   --   ---xx   wu2005-10-07d2t03.flac
10:50.10      114683564   ---   --   ---xx   wu2005-10-07d2t04.flac
12:24.21      131291036   ---   --   ---xx   wu2005-10-07d2t05.flac
131:27.34     1326.89 MB  (totals for 15 files, 0.5571 overall compression ratio)
Show Checksums
flac.ffp
wu2005-10-07d1t01.flac:019c2089ac8d30c85797a81a819bfe65
wu2005-10-07d1t02.flac:17cf16dece7184b2b0effa8888069eca
wu2005-10-07d1t03.flac:a8cf7122c0064b2f9d9872f69502bd43
wu2005-10-07d1t04.flac:407aaa9575bbd5199a420ce061cdb375
wu2005-10-07d1t05.flac:2f13f45e877ad24664edd9dd2733179d
wu2005-10-07d1t06.flac:31e03037683477a93a3812f2efe0ea1c
wu2005-10-07d1t07.flac:99299b21f315d5194d2804a49c8457a9
wu2005-10-07d1t08.flac:53704c130bf36d25eddb8d8a392b1604
wu2005-10-07d1t09.flac:45011e53d994f669256f8f896ea7bbde
wu2005-10-07d1t10.flac:876f9b633267d215a6cfb40237d5f244
wu2005-10-07d2t01.flac:2adda9722d46baecf5e372181f69044b
wu2005-10-07d2t02.flac:889f2aaaa4f26b902a12ae5636881192
wu2005-10-07d2t03.flac:77e00b1484673e8e44097bf9426c0aac
wu2005-10-07d2t04.flac:14578b3392b4dc083a81e075cf48ad2f
wu2005-10-07d2t05.flac:8643667dbf2c16dd7196aa879c133a63

Comments
Add Comment
Date User Comment