Browse Collections Artists Sources   Search Dates

Add Show    List Management    Help


Disco Biscuits 07/22/05
Artscape, Baltimore, MD
Comments Add Comment    Source Collectors    Add to Collection    Add to Want List    History
Source # 74198 Other Sources
Entered by SailorSaint
Checksums ffp
Disc Counts 2 / 2
Media Size
Date Circulated
Date Added

07/10/2006
Source Summary Schoeps mk21>kc5>cmc6>Oade m248>Apogee Mini-Me>Tascam DA-P1 Sony PCM-R500>Audiophile 24/96>Sound Studio 2.1>xACT>FLAC 
Source Information - Download Text | Download Zip
The Disco Biscuits
July 22nd, 2005
Artscape
Baltimore, MD

source: Schoeps mk21>kc5>cmc6>Oade m248>Apogee Mini-Me>Tascam DA-P1
location: fob/dfc/nos
transfer: Sony PCM-R500>Audiophile 24/96>Sound Studio 2.1>xACT>FLAC
taped and transferred by Carrington Crawford

Disc 1/Set 0
1. Run Like Hell>
2. Helicopters*>
3. Run Like Hell**
4. Floodlights
5. Jigsaw Earth>
6. Confrontation***>
7. Jigsaw Earth****

Disc 2/Set 0 con't
1. Barfly

Encore:
2. Hope>
3. Munchkin Invasion*>
4. Sound One

* - unfinished
** - w/ Kamaole Sands tease
*** - inverted
**** - w/ Basis tease

Thanks to PT for the setlist...and a big thanks to the Richmond, VA crew for helping out blocking up front. Solid show.
Late,
C.

**************************************************************************
FLAC Fingerprint
db2005-07-22d1t01.flac:64525a40b7602bbeaedfba4e839425cd
db2005-07-22d1t02.flac:ec728c3aef55bf80a2bf9b06f1c19781
db2005-07-22d1t03.flac:0b00830e88d70846408dbf0ce38e7d3d
db2005-07-22d1t04.flac:caed6763a2cf49248fa70cc95dc23de7
db2005-07-22d1t05.flac:e889baa7b94d5656ff9138c8f8f6582c
db2005-07-22d1t06.flac:dfc0eaa53df7f802084eb25d818333ac
db2005-07-22d1t07.flac:a52a13ba1668c93a9151cd12d637f655
db2005-07-22d2t01.flac:7fac1069c242a3040c4a99557d613021
db2005-07-22d2t02.flac:b62ff1d24059704a62123dcc61ccd93d
db2005-07-22d2t03.flac:b9f14a38bb839ae2a253e71edd587430
db2005-07-22d2t04.flac:b2bf2156a09abf2e778d88d073161d72

SHNTool Output
length expanded size cdr WAVE problems filename
12:38.26 133772396 --- -- ---xx db2005-07-22d1t01.flac
10:11.60 107921564 --- -- ---xx db2005-07-22d1t02.flac
1:11.67 12682028 --- -- ---xx db2005-07-22d1t03.flac
9:18.09 98452412 --- -- ---xx db2005-07-22d1t04.flac
20:28.49 216734492 --- -- ---xx db2005-07-22d1t05.flac
13:34.00 143589644 --- -- ---xx db2005-07-22d1t06.flac
2:47.45 29564684 --- -- ---xx db2005-07-22d1t07.flac
10:22.57 109854908 --- -- ---xx db2005-07-22d2t01.flac
13:35.51 143885996 --- -- ---xx db2005-07-22d2t02.flac
7:09.64 75826172 --- -- ---xx db2005-07-22d2t03.flac
4:33.69 48319532 --- -- ---xx db2005-07-22d2t04.flac
105:52.47 1120603828 B (totals for 11 files, 0.5671 overall compression ratio)
Show Checksums
ffp
db2005-07-22d1t01.flac:64525a40b7602bbeaedfba4e839425cd
db2005-07-22d1t02.flac:ec728c3aef55bf80a2bf9b06f1c19781
db2005-07-22d1t03.flac:0b00830e88d70846408dbf0ce38e7d3d
db2005-07-22d1t04.flac:caed6763a2cf49248fa70cc95dc23de7
db2005-07-22d1t05.flac:e889baa7b94d5656ff9138c8f8f6582c
db2005-07-22d1t06.flac:dfc0eaa53df7f802084eb25d818333ac
db2005-07-22d1t07.flac:a52a13ba1668c93a9151cd12d637f655
db2005-07-22d2t01.flac:7fac1069c242a3040c4a99557d613021
db2005-07-22d2t02.flac:b62ff1d24059704a62123dcc61ccd93d
db2005-07-22d2t03.flac:b9f14a38bb839ae2a253e71edd587430
db2005-07-22d2t04.flac:b2bf2156a09abf2e778d88d073161d72

Comments
Add Comment
Other Sources (comments)
DPA 4022(A-B, split... (0)
Date User Comment