Browse Collections Artists Sources   Search Dates

Add Show    List Management    Help


Drive-By Truckers 05/18/06
The Pabst Theater, Milwaukee, WI
Comments Add Comment    Source Collectors    Add to Collection    Add to Want List    History
Source # 74681 Other Sources
Entered by Kyle pike
Checksums
Disc Counts 0 / 0
Media Size
Date Circulated
Date Added
05/24/06
07/12/2006
Source Summary [16 Bit] Microtech Gefell M300 > Lunatec V3 > MT2496 (Lee Schultz) 
Source Information - Download Text | Download Zip
Drive-By Truckers
05/18/2006
The Pabst Theater
Milwaukee, WI

source:    Microtech Gefell M300\'s >  Lunatec V3 > MT @ 24/48
transfer:  MT > HD > Flac (untracked) > DVD-R (by Lee)
           DVD-R/Flac > HD > wave > cd wave > wavelab 5.01b > flac frontend level 6 (by Gordon)

location:  10th row 2\' ROC, DIN @ 6\'

Taped by Lee Schultz
Transferred by Lee Schultz and Gordon Wilson

disc one:

1. Intro/Tuning
2. Gravity\'s Gone
3. Feb 14
4. The Day John Henry Died
5. Sink Hole
6. Zip City
7. The Living Bubba
8. Never Gonna Change
9. A Blessing and a Curse
10. Do It Yourself
11. 72 (This Highway\'s Mean)
12. Aftermath USA
13. Goddamn Lonely Love
14. 18 Wheels of Love
15. Women Without Whiskey

disc two:

1. Buttholeville
2. Easy on Yourself
3. Rebels
4. Devil Don\'t Stay
5. Let Me Roll It
6. Let There Be Rock

encore:

7. Dress Blues *
8. World of Hurt
9. Shut Up and Get on the Plane
10. Lookout Mountain

notes:
* Jason solo
John Neff on pedal steel for the whole show
thanks to Lee for the untracked flacs!
Dither Performed with UV22HR in WaveLab 5.01b
Resample Performed with resampler 192 kHz in WaveLab 5.01b
fades added at beginning and end of set with WaveLab 5.01b

shntool output:
    length     expanded size   cdr  WAVE problems filename
     1:33.00       16405244    ---   --   ---xx   dbt2006-05-18d1t01.flac
     3:35.46       38034236    ---   --   ---xx   dbt2006-05-18d1t02.flac
     3:32.43       37497980    ---   --   ---xx   dbt2006-05-18d1t03.flac
     4:18.37       45598268    ---   --   ---xx   dbt2006-05-18d1t04.flac
     3:42.19       39205532    ---   --   ---xx   dbt2006-05-18d1t05.flac
     5:34.44       59021132    ---   --   ---xx   dbt2006-05-18d1t06.flac
     6:27.05       68278604    ---   --   ---xx   dbt2006-05-18d1t07.flac
     5:29.10       58059164    ---   --   ---xx   dbt2006-05-18d1t08.flac
     5:19.09       56292812    ---   --   ---xx   dbt2006-05-18d1t09.flac
     3:52.18       40967180    ---   --   ---xx   dbt2006-05-18d1t10.flac
     5:43.03       60512300    ---   --   ---xx   dbt2006-05-18d1t11.flac
     5:15.19       55610732    ---   --   ---xx   dbt2006-05-18d1t12.flac
     5:45.32       60933308    ---   --   ---xx   dbt2006-05-18d1t13.flac
     8:42.42       92179628    ---   --   ---xx   dbt2006-05-18d1t14.flac
     4:35.64       48660572    ---   --   ---xx   dbt2006-05-18d1t15.flac
     7:09.56       75807356    ---   --   ---xx   dbt2006-05-18d2t01.flac
     3:39.59       38770412    ---   --   ---xx   dbt2006-05-18d2t02.flac
     5:11.11       54886316    ---   --   ---xx   dbt2006-05-18d2t03.flac
     5:35.15       59129324    ---   --   ---xx   dbt2006-05-18d2t04.flac
     6:05.46       64494236    ---   --   ---xx   dbt2006-05-18d2t05.flac
     8:57.02       94731548    ---   --   ---xx   dbt2006-05-18d2t06.flac
     5:17.15       55954124    ---   --   ---xx   dbt2006-05-18d2t07.flac
     5:55.12       62650268    ---   --   ---xx   dbt2006-05-18d2t08.flac
     4:23.66       46548476    ---   --   ---xx   dbt2006-05-18d2t09.flac
     6:11.43       65545580    ---   --   ---xx   dbt2006-05-18d2t10.flac
   131:52.41        1331.11 MB                    (totals for 25 files, 0.5395 overall compression ratio)

ffp:
dbt2006-05-18d1t01.flac:89c93242d394e9bad90f67e71bb19f75
dbt2006-05-18d1t02.flac:2c7ae907eb29fda0e02d2e9d0cd6ec6e
dbt2006-05-18d1t03.flac:d01d1192729a5098b7c77cc665b3b8e0
dbt2006-05-18d1t04.flac:f2170c5cda15d829d53c7273bae124cd
dbt2006-05-18d1t05.flac:23d6d51b35c4ca16da1e7bd2b4faebb3
dbt2006-05-18d1t06.flac:1f920ca32251a96ed6092110da01ac98
dbt2006-05-18d1t07.flac:8eaff26955b7061446ea8c5f48bbbe4b
dbt2006-05-18d1t08.flac:4652953960fb168140fa5f2bef3217eb
dbt2006-05-18d1t09.flac:3def4179b98b782eb04f26999f7b3840
dbt2006-05-18d1t10.flac:4f27fade62e84c1ba993708e74efe144
dbt2006-05-18d1t11.flac:08f572a35fd59aaf512bf9af2de83dea
dbt2006-05-18d1t12.flac:2262f192e62ae673fedf5eb9657aa546
dbt2006-05-18d1t13.flac:7e91f9f672b33604057018ff546efee4
dbt2006-05-18d1t14.flac:c07e2b8adb877d4bc4bf5e42858cc330
dbt2006-05-18d1t15.flac:b0e9d72bd0f05107dbb8395b70841503
dbt2006-05-18d2t01.flac:668ec1700a4564f3f578cfe2d91fefad
dbt2006-05-18d2t02.flac:9a48bac5deff2bc8080daec850aa3dc8
dbt2006-05-18d2t03.flac:9dad85ce59f11ed58111a8e4bcbe9bf0
dbt2006-05-18d2t04.flac:513a3b80b6f367030e1eea3b82343297
dbt2006-05-18d2t05.flac:70bfc331addf9a593eb447d3e47ec9b5
dbt2006-05-18d2t06.flac:55492768aaffda78d2c14ef5eecd898e
dbt2006-05-18d2t07.flac:e745b07dd065e0f3d4282213199af24b
dbt2006-05-18d2t08.flac:9f9cf48bf5497a5947f5cdc73911f45f
dbt2006-05-18d2t09.flac:9192f456803c401d569c84045e7005e0
dbt2006-05-18d2t10.flac:b4d20639e1e3c57972ef8a95e1f62432
Show Checksums

Comments
Add Comment
Date User Comment