Browse Collections Artists Sources   Search Dates

Add Show    List Management    Help


Grateful Dead 03/09/81
Madison Square Garden, New York, NY
Comments Add Comment    Source Collectors    Add to Collection    Add to Want List    History
Source # 7473 Other Sources
Entered by dr.unclear
Checksums shn-md5 , st5
Disc Counts 2 / 3
Media Size
Date Circulated
Date Added
02/08/02
02/08/2002
Source Summary Recording by Barry Glassberg: Improved 'transfer' of original fob source; via Barry glassberg; Jim Wise; upgrade in circulation 
  Archive
Source Information - Download Text | Download Zip
Grateful Dead
Madison Square Garden
NYC, New York  
3/9/81

SET1
Feel Like a Stranger [8:10] ;
Althea [7:56] ;
C.C. Rider [7:30] ;
Ramble on Rose [7:46] >
El Paso [4:53] ;
Deep Elem Blues [6:23] ;
Beat it on Down the Line [3:18] ;
Bird Song [10:55] ;
Minglewood Blues [6:52]

SET2
China Cat Sunflower [9:28] >
I Know You Rider [6:10] >
Samson & Delilah[6:55] ;
Ship of Fools [8:10] ;
Estimated Prophet [14:10] >
Uncle John's BAND [11:41] >
Drums >
Space [3:08] >
The Other One [7:43] >
Stella Blue [9:49] >
Good Lovin' [6:33]

ENCORE:  
U.S. Blues

From the desk of Jim Wise:
3/9 & 3/10 are brand new fresh transcriptions from the cassettes, pure and clean (and much better ,with absolutely nothing in between the tape & the cd ). the old versions were derived from a zero gen. dat run by barry & he ran it w/dolby on during cassette play back, imo it was not the best a > d, & they lost a lot of alive-ness. this time they are definitive:

3-9-81 Barry glassberg nak cm700's > sony tc d-5m 12'th row center xl11 dolby b cassette master . analog to digital > tascam 112 mk11 cassette playback > sony pcm r-500 dat, @ 44.1 kHz , then dat > cd via hhb cdr-850

Audf:Cm>D>CD>EAC>CD>SHN
>>>>>>>>>>>>>>>>>>>>>>>>>>>>>>>>>>>>>>>>>>>>>>>>>>>>>>>>>>>>>>>
EAC extraction logfile for CD #1
Unknown Artist / Unknown Title


Track  1
   Filename C:\My Documents\3-9-81d1\Track01.wav

   Peak level 86.0 %
   Track quality 100.0 %
   Test CRC 698016F9
   Copy CRC 698016F9
   Copy OK

Track  2
   Filename C:\My Documents\3-9-81d1\Track02.wav

   Peak level 81.4 %
   Track quality 100.0 %
   Test CRC 0E444A4F
   Copy CRC 0E444A4F
   Copy OK

Track  3
   Filename C:\My Documents\3-9-81d1\Track03.wav

   Peak level 85.8 %
   Track quality 100.0 %
   Test CRC C47829AB
   Copy CRC C47829AB
   Copy OK

Track  4
   Filename C:\My Documents\3-9-81d1\Track04.wav

   Peak level 83.5 %
   Track quality 99.9 %
   Test CRC FBE9762B
   Copy CRC FBE9762B
   Copy OK

Track  5
   Filename C:\My Documents\3-9-81d1\Track05.wav

   Peak level 80.1 %
   Track quality 99.9 %
   Test CRC EDA387D4
   Copy CRC EDA387D4
   Copy OK

Track  6
   Filename C:\My Documents\3-9-81d1\Track06.wav

   Peak level 70.2 %
   Track quality 100.0 %
   Test CRC 15FA32E3
   Copy CRC 15FA32E3
   Copy OK

Track  7
   Filename C:\My Documents\3-9-81d1\Track07.wav

   Peak level 82.4 %
   Track quality 100.0 %
   Test CRC A9DB2569
   Copy CRC A9DB2569
   Copy OK

Track  8
   Filename C:\My Documents\3-9-81d1\Track08.wav

   Peak level 76.8 %
   Track quality 100.0 %
   Test CRC 67646BD2
   Copy CRC 67646BD2
   Copy OK

Track  9
   Filename C:\My Documents\3-9-81d1\Track09.wav

   Peak level 88.3 %
   Track quality 100.0 %
   Test CRC 851EB809
   Copy CRC 851EB809
   Copy OK


End of status report
>>>>>>>>>>>>>>>>>>>>>>>>>>>>>>>>>>>>>>>>>>>>>>>>>>>>>>>>>>>>>>>
EAC extraction logfile for CD #2
Unknown Artist / Unknown Title


Track  1
   Filename C:\My Documents\3-9-81d2\Track01.wav

   Peak level 74.7 %
   Track quality 99.9 %
   Test CRC 7E0A7BB3
   Copy CRC 7E0A7BB3
   Copy OK

Track  2
   Filename C:\My Documents\3-9-81d2\Track02.wav

   Peak level 97.0 %
   Track quality 100.0 %
   Test CRC 5FFA5439
   Copy CRC 5FFA5439
   Copy OK

Track  3
   Filename C:\My Documents\3-9-81d2\Track03.wav

   Peak level 83.4 %
   Track quality 100.0 %
   Test CRC C212D2D1
   Copy CRC C212D2D1
   Copy OK

Track  4
   Filename C:\My Documents\3-9-81d2\Track04.wav

   Peak level 67.6 %
   Track quality 100.0 %
   Test CRC F7383059
   Copy CRC F7383059
   Copy OK

Track  5
   Filename C:\My Documents\3-9-81d2\Track05.wav

   Peak level 68.9 %
   Track quality 100.0 %
   Test CRC 5EEE12B5
   Copy CRC 5EEE12B5
   Copy OK

Track  6
   Filename C:\My Documents\3-9-81d2\Track06.wav

   Peak level 72.5 %
   Track quality 100.0 %
   Test CRC E3A836E1
   Copy CRC E3A836E1
   Copy OK

Track  7
   Filename C:\My Documents\3-9-81d2\Track07.wav

   Peak level 96.8 %
   Track quality 100.0 %
   Test CRC D6C135EA
   Copy CRC D6C135EA
   Copy OK


End of status report
>>>>>>>>>>>>>>>>>>>>>>>>>>>>>>>>>>>>>>>>>>>>>>>>>>>>>>>>>>>>>>>
EAC extraction logfile for CD #3
Unknown Artist / Unknown Title


Track  1
   Filename C:\My Documents\3-9-81d3\Track01.wav

   Peak level 59.1 %
   Track quality 99.9 %
   Test CRC 58BB6FEB
   Copy CRC 58BB6FEB
   Copy OK

Track  2
   Filename C:\My Documents\3-9-81d3\Track02.wav

   Peak level 85.3 %
   Track quality 100.0 %
   Test CRC FE75FE02
   Copy CRC FE75FE02
   Copy OK

Track  3
   Filename C:\My Documents\3-9-81d3\Track03.wav

   Peak level 77.8 %
   Track quality 100.0 %
   Test CRC 3EFD9AED
   Copy CRC 3EFD9AED
   Copy OK

Track  4
   Filename C:\My Documents\3-9-81d3\Track04.wav

   Peak level 88.8 %
   Track quality 100.0 %
   Test CRC D23446EA
   Copy CRC D23446EA
   Copy OK

Track  5
   Filename C:\My Documents\3-9-81d3\Track05.wav

   Peak level 97.0 %
   Track quality 99.9 %
   Test CRC C3F6259C
   Copy CRC C3F6259C
   Copy OK


End of status report
Show Checksums
shn-md5
b1bdeb03e66d89f43eeaeb4cacfe3cb8 *gd81-03-09d1t03.shn
6898d24c77360df95b5b59b9c455c2ef *gd81-03-09d1t04.shn
056ffa715d401c2d0131a484e9a7f8e8 *gd81-03-09d1t06.shn
c5c14756e018c80b0e4097651b6ce7d1 *gd81-03-09d1t07.shn
2584aa7cacbe64c44c414792e432e5aa *gd81-03-09d1t09.shn
3f5f9c9634d922c59b0cc91ba39719ca *gd81-03-09d1t01.shn
2f43e172aa63d2d4fd930a2849e8e587 *gd81-03-09d1t02.shn
d5da4c838acf813ff45e916c90e2ea45 *gd81-03-09d1t05.shn
980ed389eb7a416725245bb0faf1b70d *gd81-03-09d1t08.shn
26bda9fb0288cac334bf802c8e4e3060 *gd81-03-09d2t03.shn
d92103f75efefbf7de6b34b5b458be6e *gd81-03-09d2t01.shn
e6005c734c5a5aa7fefb2c51390abe03 *gd81-03-09d2t02.shn
152f7d8f7d83ff935f184a1f57afa53d *gd81-03-09d2t04.shn
cafdb30ede26f0673ca58f6ff2b5b844 *gd81-03-09d2t05.shn
39cb7b2472d3108e1d33774f92921fc2 *gd81-03-09d2t06.shn
ff2d19093d6a6086fc03cb397dbc9dff *gd81-03-09d2t07.shn
942d03ea8500fe473296b03b446ce1ab *gd81-03-09d3t03.shn
31264fcba1bcfe51845c2ea9ff86274b *gd81-03-09d3t04.shn
db9e02a60bf3fbdf54b9b430cdae7748 *gd81-03-09d3t01.shn
e3201350148cfaa86f3d19ee75bcf20a *gd81-03-09d3t02.shn
295225324bb5a8db8f77aa0a60791a8c *gd81-03-09d3t05.shn
st5
50a86cae1a5cc0157d15b86b6c791f0f [shntool] gd81-03-09d1t01.shn
954d56680471b85246a5061d54be6432 [shntool] gd81-03-09d1t02.shn
8ab2317f2566c0b6059df80f4c9ce579 [shntool] gd81-03-09d1t03.shn
9a3cb50b46ff1202b973082e4d7d0fcb [shntool] gd81-03-09d1t04.shn
52691cc367e3f0353da4e021cc5dea0f [shntool] gd81-03-09d1t05.shn
37ecd0e732d0f121e25edd434ed708d4 [shntool] gd81-03-09d1t06.shn
fd9d9796ac66165324d1677ea330f8b4 [shntool] gd81-03-09d1t07.shn
76dcd37b3d39b6b05405b1576b358b9c [shntool] gd81-03-09d1t08.shn
0fabbdb3bad3c2d502b3585a7f144a51 [shntool] gd81-03-09d1t09.shn
d369fa10549ac1a88fc6360aa0e38b21 [shntool] gd81-03-09d2t01.shn
e6e26a796180235147dca04548ead91a [shntool] gd81-03-09d2t02.shn
06fafd46534259c58355673bcd81d620 [shntool] gd81-03-09d2t03.shn
bc0f0e15fee433c5e56c981fa44cb58e [shntool] gd81-03-09d2t04.shn
b0914ead2211d7920848f50e7df2ae53 [shntool] gd81-03-09d2t05.shn
6d304ffd3dcc29eed5b71da98d7ab315 [shntool] gd81-03-09d2t06.shn
0ca360ea5b81b2a42398620adeb146e6 [shntool] gd81-03-09d2t07.shn
be90b5286025fa75f22de6f3fe5000f6 [shntool] gd81-03-09d3t01.shn
f597edba3c951a650a097b634564e9e1 [shntool] gd81-03-09d3t02.shn
2d510571d382560c164a3de4f7d838ed [shntool] gd81-03-09d3t03.shn
b63c778cfe1706581be7af521b42f60e [shntool] gd81-03-09d3t04.shn
a3154158e07640253b60a9a0803ca086 [shntool] gd81-03-09d3t05.shn

Comments
Add Comment
Other Sources (comments)
Recording by Barry... (0) Sources: Master Soundboard... (1) flac16; Recording... (0) flac16; Recording by... (0) flac24/96; Recording... (0) flac16; Recording... (1) flac24; Recording... (0) flac24; Matrix by... (0) flac16; Matrix by... (1) flac16; Recording by... (0)
Date User Comment