Browse Collections Artists Sources   Search Dates

Add Show    List Management    Help


Grateful Dead 04/09/89
Freedom Hall, Louisville, KY
Comments Add Comment    Source Collectors    Add to Collection    Add to Want List    History
Source # 75504 Other Sources
Entered by Matt Vernon
Checksums flac-md5 , ffp , orig-flac-replaygain-md5
Disc Counts 2 / 3
Media Size
Date Circulated
Date Added
07/15/2006
07/16/2006
Source Summary flac16; Seamless fix of shn id 34962 - SBD>CM>DAT>CD>EAC>SHN(>WAV>FLAC). Note Added 11/9/08: Reflac version w/o replay gain added. See info file for details 
  Archive
Source Information - Download Text | Download Zip
Grateful Dead
Freedom Hall
Louisville, Kentucky
4/9/89
------------------------------------------------------------------------
Fix of shnid 34962

There was a small bit of overlap between the end of CD 2 and the
beginning of CD 3 (which starts with an AUD patch), so I synched them
up in CE Pro and crossfaded them to make the transition seamless.

Bill Tetzeli ([email protected])
9:34 PM 6/15/2006
------------------------------------------------------------------------
When this source was first circulated, the flac files contained
REPLAYGAIN tags. The wav files compressed inside the flac files are
fine, but if you listen to the flac files themselves using a player
like WinAMP, these tags cause all the tracks to be played at the same
volume. That's not good for concerts where some tracks are supposed to
be louder than others.

There's a new version of this source available. It has exactly the
same wav files; it's just the flac wrapper that's different, the
wrapper doesn't have REPLAYGAIN set anymore. The new version has the
same ffp file (since the wav's are the same), but a new md5 file
(since the flac files are different). The md5 file for the old source
is called "orig-flac-replaygain-md5"; the md5 file for the good new
source is called "flac-md5". If you have a source for this that
matches the ffp, you can create the new source by unflac'ing the old
source and then recompressing at flac level 8 using the flac command
line tool or the flac frontend.

From now on, only the new version of the source should be circulated.

SteveSw - Nov, 2008
------------------------------------------------------------------------

CD 1
Hell in a Bucket
Sugaree
Walkin' Blues
It Must Have Been the Roses
Me and My Uncle
Big River
Ramble on Rose
Desolation Row
Foolish Heart

SET II
CD2
Louie Louie
Man Smart/Woman Smarter
Ship of Fools
Estimated Prophet
Uncle John's Band
Drums

CD3
Space
The Other One
Stella Blue
Sugar Magnolia

ENCORE:
Knockin' on Heaven's Door

--------------- shnid 13207 information ------------
EAC'd and SHN'd by Charlie Miller

source:  SBD>CM>DAT>CD>EAC>SHN(>WAV>FLAC)

seeded to etree 11/18/02
by: Patrick White
[email protected]
------------------------------------------------------
this is a speed corrected/aud patched version of 13207
this fine show that had a culmative pitch problem that started at a 102
ratio to start and ended with a 108 ratio as compared to both the
vhs video and audience dat recording.

the following audience patches occurred (to match video)
17 seconds added before Hell In A Bucket
27 seconds added between Sugaree and Walkin' Blues
1 minute 24 seconds added between Big River and Ramble on Rose
6 seconds added after foolish heart
58 seconds added at start of space on cd3
53 seconds added between Sugar Magnolia and Knockin on Heaven's Door
(shnid 7858 was used to provide audience patches
Digital Audience - Jill & Rob R
3 Nak CM 300's - 2 CP 4's (Shotguns) 1 CP3 ( Super Omni ) arranged in
an X-Y
pattern.
As always (per Healy) from the taper's section.)

- Aud and sbd were synced while working on a low generation video
available on 3 dvds by Brokedown House Productions
- Mixed by [email protected]
- FLAC conversion 10-JUN-2006

==========

    length     expanded size    cdr  WAVE problems  fmt   ratio  filename
     6:49.55       72277004 B   ---   --   ---xx   flac  0.7043  gd89-04-09d1t01.flac
    10:06.04      106907852 B   ---   --   ---xx   flac  0.6724  gd89-04-09d1t02.flac
     8:49.14       93348572 B   ---   --   ---xx   flac  0.6714  gd89-04-09d1t03.flac
     6:56.65       73535324 B   ---   --   ---xx   flac  0.6534  gd89-04-09d1t04.flac
     3:12.12       33897068 B   ---   --   ---xx   flac  0.6932  gd89-04-09d1t05.flac
     6:45.21       71491436 B   ---   --   ---xx   flac  0.6522  gd89-04-09d1t06.flac
     7:09.68       75835580 B   ---   --   ---xx   flac  0.6666  gd89-04-09d1t07.flac
    10:35.36      112098716 B   ---   --   ---xx   flac  0.6723  gd89-04-09d1t08.flac
     8:10.73       86607740 B   ---   --   ---xx   flac  0.6909  gd89-04-09d1t09.flac
     4:54.08       51880460 B   ---   --   ---xx   flac  0.6200  gd89-04-09d2t01.flac
     7:03.09       74638412 B   ---   --   ---xx   flac  0.6191  gd89-04-09d2t02.flac
     6:55.31       73278956 B   ---   --   ---xx   flac  0.5864  gd89-04-09d2t03.flac
    11:32.31      122141756 B   ---   --   ---xx   flac  0.6108  gd89-04-09d2t04.flac
     9:58.37      105574268 B   ---   --   ---xx   flac  0.6163  gd89-04-09d2t05.flac
     6:08.59       65054012 B   ---   --   ---xx   flac  0.5749  gd89-04-09d2t06.flac
     7:53.07       83453708 B   ---   --   ---xx   flac  0.5503  gd89-04-09d3t01.flac
     7:28.00       79027244 B   ---   --   ---xx   flac  0.5921  gd89-04-09d3t02.flac
     8:13.71       87132236 B   ---   --   ---xx   flac  0.5732  gd89-04-09d3t03.flac
     9:55.00      104958044 B   ---   --   ---xx   flac  0.6010  gd89-04-09d3t04.flac
     7:26.50       78792044 B   ---   --   ---xx   flac  0.5902  gd89-04-09d3t05.flac
   156:04.51     1651930432 B                            0.6296  (20 files)
Show Checksums
flac-md5
7575522f1011fa59cc1a6d3a1f63b176 *gd89-04-09d1t01.flac
1a7a8e1ff743c260a22159f9d38bf106 *gd89-04-09d1t02.flac
da821552a27ded051594e3e7d04782fd *gd89-04-09d1t03.flac
e4200066a1e71e93f29a1399130eeb8e *gd89-04-09d1t04.flac
2805a72ef5e4d4ce2f8068afa480d173 *gd89-04-09d1t05.flac
33b8ed6f0f1bffa8905ccffbd3502e68 *gd89-04-09d1t06.flac
db42b11cdd6234ec2bb1661afa24a1cc *gd89-04-09d1t07.flac
1aef6d54098a18200ff95faa4d118141 *gd89-04-09d1t08.flac
593b7385b30c19cabefa1ed35f061d1f *gd89-04-09d1t09.flac
19d96dd605d6c5d208d1a53f6406d11f *gd89-04-09d2t01.flac
ade09929c59aec851d748f69fd207451 *gd89-04-09d2t02.flac
c9447e13ff99f23012bcbec4ed1fa272 *gd89-04-09d2t03.flac
ed6da40f573dbea6b6200efda7661efe *gd89-04-09d2t04.flac
fe2efc4b6e4955855d334150e15b7ab7 *gd89-04-09d2t05.flac
fb5093430f2ae3755cea913da175795e *gd89-04-09d2t06.flac
08bf1c1fe1cec8529b07a2a9bb181588 *gd89-04-09d3t01.flac
f6bda9c3eacb2cffb2ddf380c1c19be1 *gd89-04-09d3t02.flac
9d046f93b1ad039fbfde92f72b5af262 *gd89-04-09d3t03.flac
27d9f720c759db96f0a197fa9a8a1fe3 *gd89-04-09d3t04.flac
3604efaa1bd9f4519971b2bab4f33d80 *gd89-04-09d3t05.flac
ffp
gd89-04-09d1t01.flac:8af2c893cf08a1aad3e81e7e02b57327
gd89-04-09d1t02.flac:bfc2bc57a7cf40b3e3ec47c3e19b4238
gd89-04-09d1t03.flac:8cb9b71e27469282156d1b298c3520e2
gd89-04-09d1t04.flac:4d656e19d07e1ca0ede87afed5494a36
gd89-04-09d1t05.flac:fb75ba092b3364290feac1afdcf08fd5
gd89-04-09d1t06.flac:19c791835b6f75352b16bbc3a86c8388
gd89-04-09d1t07.flac:3b59a9f00969591c3f54080d60f50c6d
gd89-04-09d1t08.flac:9348b2e6bf517c8002dcb9efb1560265
gd89-04-09d1t09.flac:a40b8912978678332d7536612ac69f40
gd89-04-09d2t01.flac:3cd2010a375af11a6d18632c0fdb345c
gd89-04-09d2t02.flac:314f499542ae178e39d0d42f3c607f85
gd89-04-09d2t03.flac:30fd7729ca62bb2735eacd5532d8fc45
gd89-04-09d2t04.flac:e916524e87a06a2aac0969e76a5fdf3d
gd89-04-09d2t05.flac:a0b3d793b8642237301861bfed27e497
gd89-04-09d2t06.flac:3acd2a9cc5564aa78e46162f82affb59
gd89-04-09d3t01.flac:c83bb3efaabab0fa6147bf591f31aa86
gd89-04-09d3t02.flac:5a40979abadcfe04bb031a06aec40181
gd89-04-09d3t03.flac:2d08d8334b0c8dafecbd6317c5fe018c
gd89-04-09d3t04.flac:3eae77b1129421392552dd514dacbe79
gd89-04-09d3t05.flac:4371ee9b79ebecf047f0026bedfd29c7
orig-flac-replaygain-md5
517ea0b92d423ae72aeee91d7fee6b14 *gd89-04-09d1t01.flac
2a7aa21efb060f0b277f60b25984f4ee *gd89-04-09d1t02.flac
8426437a3ecefc3f71f71941bd078ecc *gd89-04-09d1t03.flac
88d5c9477bb6008da4b49024c762e2d8 *gd89-04-09d1t04.flac
bf293994b7a3e1b44e6f62c710eed9f1 *gd89-04-09d1t05.flac
09eb0cfd2e634fbadfba36e22ada5029 *gd89-04-09d1t06.flac
caae797b987733c887ee45f2b6371a55 *gd89-04-09d1t07.flac
16387d905c9faaa1b2c913e02b2175f2 *gd89-04-09d1t08.flac
297a2a4382a176d917ad252dc25c04be *gd89-04-09d1t09.flac
234dedfe3fbbc8ec48b8b7a070630996 *gd89-04-09d2t01.flac
3c42e576d3ea0afc736d4a3365e0a7fd *gd89-04-09d2t02.flac
9498acb45748a56d4ad535c7e61d0b55 *gd89-04-09d2t03.flac
4a95d438f6b85df926c300b1574ddd65 *gd89-04-09d2t04.flac
133456070e7d03cb5e4393cc01c9f8c7 *gd89-04-09d2t05.flac
6e20833d351ef18760da64c349a7167f *gd89-04-09d2t06.flac
a793f39b5e94e51998858c0c2a05803d *gd89-04-09d3t01.flac
ddfa39df9a31a7c40105d5a94ea70c12 *gd89-04-09d3t02.flac
f2a7b2d28c9be0932d05e14f80f79d0d *gd89-04-09d3t03.flac
697774215a63b0b5761d8c7edb27e978 *gd89-04-09d3t04.flac
18258c0d4a44e7b3b07cb85eec79af3e *gd89-04-09d3t05.flac

Comments
Add Comment
Other Sources (comments)
Digital Audience - Jill &... (0) SBD> CM> DAT> CD> EAC> SHN;... (3) flac16; SBD> CM>... (0) flac16; Source:... (1) flac16; source: aud... (0) flac16/48kHz;... (0)
Date User Comment
11/09/2006 btet This was inadvertently FLAC encoded with replaygain. If you're playing the FLACs in Winamp you should reFLAC the files without the replaygain option. If you're burning extracted .wavs to CD, these are unaffected and no reFLACing is necessary. I apologize for the error.
11/09/2006 skbarchives Not to worry. I have the sbd cassette masters which I will be circulating in both 16bit and 24bit.