Browse Collections Artists Sources   Search Dates

Add Show    List Management    Help


Grateful Dead 06/14/87
Ventura County Fairgrounds, Ventura, CA
Comments Add Comment    Source Collectors    Add to Collection    Add to Want List    History
Source # 75505 Other Sources
Entered by Matt Vernon
Checksums ffp , orig-flac-md5 , flac-md5
Disc Counts 2 / 3
Media Size
Date Circulated
Date Added
07/16/2006
07/16/2006
Source Summary flac16; Seamless fix of shn id 11896 - Master Soundboard Cassette > PCM > DAT > CD > WAV > SHN > WAV > FLAC 
  Archive
Source Information - Download Text | Download Zip
Grateful Dead
June 14th, 1987
Ventura County Fairgrounds
Ventura, California
----------------------------------------------------------------------------------
Seamless fix of shnid 11896

I reversed the fade at the end of CD 2 to match the volume of a splice point at the beginning of CD 3, then deleted the redundant material to make the transition seamless.  SBEs in CD 3 were fixed using shntool; the only other SBE comes at the end of CD 1, which didn't seem necessary to fix.  All SHNs were converted to FLAC.

Bill Tetzeli ([email protected])
11:54 PM 7/15/2006
----------------------------------------------------------------------------------
This source was originally encoded with replaygain. Replaygain equalizes the volume of tracks, which is unfortunate for a band like this that uses volume in their art. The new version of this source was made by decoding the original flac files to wav's, and then re-encoding to wav at maximum compression. I used "flac -8 *.wav", but you can use your favorite GUI over flac to equal effect.

SteveSw
March 2009
----------------------------------------------------------------------------------
Master Soundboard Cassette > PCM > DAT > CD > WAV > SHN > WAV > FLAC

CD Re-Mastering by Scott Clugston
EAC'ed / SHN'ed by Scott Clugston
7/22/02

Disc 1
1st Set
1. Hell In A Bucket>
2. Sugaree
3. Tons of Steel
4. Ramble On Rose
5. Me & My Uncle>
6. Mexicali Blues
7. Althea
8. Feel Like A Stranger
9. Might As Well

Disc 2
2nd Set
1. Scarlet>
2. Fire
3. Playin'>
4. Terrapin>
5. Drums>

Disc 3
1. Space>
2. Truckin'>
3. Wharf Rat>
4. Throwing Stones>
5. NFA
Encore
6. Mighty Quinn  


shntool output:

    length     expanded size   cdr  WAVE problems filename
     6:14.01       65975996    ---   --   ---xx   gd87-06-14d1t01.flac
    12:20.51      130655996    ---   --   ---xx   gd87-06-14d1t02.flac
     5:50.14       61772972    ---   --   ---xx   gd87-06-14d1t03.flac
     7:09.65       75828524    ---   --   ---xx   gd87-06-14d1t04.flac
     3:10.46       33624236    ---   --   ---xx   gd87-06-14d1t05.flac
     5:45.30       60928604    ---   --   ---xx   gd87-06-14d1t06.flac
     8:37.45       91304684    ---   --   ---xx   gd87-06-14d1t07.flac
     8:24.63       89053820    ---   --   ---xx   gd87-06-14d1t08.flac
     4:38.63       49187516    -b-   --   ---xx   gd87-06-14d1t09.flac
     8:27.25       89493644    ---   --   ---xx   gd87-06-14d2t01.flac
     9:57.39      105402572    ---   --   ---xx   gd87-06-14d2t02.flac
     9:36.06      101620556    ---   --   ---xx   gd87-06-14d2t03.flac
    10:51.57      114970508    ---   --   ---xx   gd87-06-14d2t04.flac
     9:35.07      101446508    ---   --   ---xx   gd87-06-14d2t05.flac
    12:27.27      131834348    ---   --   ---xx   gd87-06-14d3t01.flac
     7:36.13       80469020    ---   --   ---xx   gd87-06-14d3t02.flac
     8:02.08       85043660    ---   --   ---xx   gd87-06-14d3t03.flac
     9:20.66       98939276    ---   --   ---xx   gd87-06-14d3t04.flac
    11:32.50      122186444    ---   --   ---xx   gd87-06-14d3t05.flac
     4:28.24       47331692    ---   --   ---xx   gd87-06-14d3t06.flac
   164:07.25     1737070576 B  
Show Checksums
ffp
gd87-06-14d1t01.flac:f005c2b2ff3dcfafe11779cfd9e11d10
gd87-06-14d1t02.flac:c70e00926b27b8db5d68e5ff348d4747
gd87-06-14d1t03.flac:c8cc6c0e584b30b15f2a9f7db74e69bb
gd87-06-14d1t04.flac:8cc4f9296167593995738b4d0961ade0
gd87-06-14d1t05.flac:9d2f63dc830f918960ec5ad48d35463b
gd87-06-14d1t06.flac:a26a60cc524cc2d0b5c44a2539e3861f
gd87-06-14d1t07.flac:20ad90c97c329afc2b3b7dbad440479e
gd87-06-14d1t08.flac:c3713deca6a759062a85148bf2b50d2f
gd87-06-14d1t09.flac:11fd77b478d330e11762d89d89120e2a
gd87-06-14d2t01.flac:c505043a1857107f53e696ebfdea82df
gd87-06-14d2t02.flac:4413881aec0ad83860847d14fe0499f7
gd87-06-14d2t03.flac:35fe663ee22c7e5837453df50be83f5a
gd87-06-14d2t04.flac:b2a4a8174ccf2d8124010d5999e96d8b
gd87-06-14d2t05.flac:6c378481849c19946c77e8bd64ca6012
gd87-06-14d3t01.flac:feca77b9132be17341af0b1f7890f1bd
gd87-06-14d3t02.flac:586042f39932ddca8add8ae183afd298
gd87-06-14d3t03.flac:2cd8c79f1cbfa870dc7839b78693eb2a
gd87-06-14d3t04.flac:6eb832be34332251a8f03f1a7acac904
gd87-06-14d3t05.flac:fe1297d7d5bcfbb834eac6de47fe92e0
gd87-06-14d3t06.flac:45b1bcc0c5a4e7623e753c09f4806901
orig-flac-md5
3b2420aeb5dbd306226da800b382ac39 *gd87-06-14d1t01.flac
4d2170f64864a2d94a483e0887d0c6c6 *gd87-06-14d1t02.flac
dd4d22a6a055e8c5dcf4ee8052af65d2 *gd87-06-14d1t03.flac
587d321812c0e487010ce1dd5e6d65d8 *gd87-06-14d1t04.flac
9dc3f2a63227cb73aa523ce2fd8749b0 *gd87-06-14d1t05.flac
84acab52593328e2fd96be7f102e4c67 *gd87-06-14d1t06.flac
72b10ab4746f5f8842b9fd786f0dbaeb *gd87-06-14d1t07.flac
9d78d6cc7490e66e868de529a9de3663 *gd87-06-14d1t08.flac
4d70f1a3bc7310208c671050f63f7bb5 *gd87-06-14d1t09.flac
49455e1a5c7c46cc751fd3ec77b9a816 *gd87-06-14d2t01.flac
318d1a53f0abba60b4e7c2c5830a75a6 *gd87-06-14d2t02.flac
83678a09b5fd767c86b3d142b6cbd9fe *gd87-06-14d2t03.flac
69b0f4c806c265a095f41534ddd6c886 *gd87-06-14d2t04.flac
8e99a4c67f17a66fe6b57c5194e5b3cc *gd87-06-14d2t05.flac
c343e210e7b623a6797ab7c2cbc4bc7c *gd87-06-14d3t01.flac
41ede055fb6f8cfc8e2d84b4b66851c1 *gd87-06-14d3t02.flac
bf03580974531fce6cfc353cbef4e75b *gd87-06-14d3t03.flac
8acb68f8b024f4f669926afd0e9c9a23 *gd87-06-14d3t04.flac
a6ff2c44fa6de239205dc2073661b57e *gd87-06-14d3t05.flac
d6de09f4e2d546aa546cdf5b6a9ec7ed *gd87-06-14d3t06.flac
flac-md5
15306f2f7509427f00ae56433dd83da1 *gd87-06-14d1t01.flac
10780da52be1e298bb4d1631173334a7 *gd87-06-14d1t02.flac
8e34d4bb9d31361f2c1106c2a13fbeea *gd87-06-14d1t03.flac
bf45f950527582a35d2ecd6a538c1aba *gd87-06-14d1t04.flac
250f98219ded724f8466f081d699a59f *gd87-06-14d1t05.flac
65bd0decb861464f8f81379471182428 *gd87-06-14d1t06.flac
7016ac85b6574c43b3d6c7c30b6e0a0c *gd87-06-14d1t07.flac
151a19344d16292557040144c6fcb753 *gd87-06-14d1t08.flac
4497d285984597e33d4cc5ae23049034 *gd87-06-14d1t09.flac
2d1cadba2a74520b78250dd524fa4aef *gd87-06-14d2t01.flac
4638a226d1e16ade7c3d3e5d3defd49a *gd87-06-14d2t02.flac
3fc807eb63b3861f5694dfbc9d0240d1 *gd87-06-14d2t03.flac
0041eef8228adf42f2d5ca8df6f5d1e9 *gd87-06-14d2t04.flac
859380968d96166823ae1080fe808299 *gd87-06-14d2t05.flac
c2c11e7db32163257785d06a8169a6be *gd87-06-14d3t01.flac
38343c75162858cef712109ddff498eb *gd87-06-14d3t02.flac
101e1771934fae68b260a79ebb0ff47b *gd87-06-14d3t03.flac
aaedd73b282ec6c6da2593bc813b0118 *gd87-06-14d3t04.flac
7f80c844f0d6610e686abc0f7e780720 *gd87-06-14d3t05.flac
51b9c11d85e030ff9e68a0078f660a41 *gd87-06-14d3t06.flac

Comments
Add Comment
Other Sources (comments)
Master Soundboard Cassette... (0) Matrix SBD>CASS>DAT>CD; via... (1) flac16; SRC: MAC (2... (0) flac24; SRC: MAC (2... (0) flac16; Recording... (0) flac16; Source:... (0) flac24; Source:... (0) flac24;... (0)
Date User Comment
11/09/2006 btet This was inadvertently FLAC encoded with replaygain. If you're playing the FLACs in Winamp you should reFLAC the files without the replaygain option. If you're burning extracted .wavs to CD, these are unaffected and no reFLACing is necessary. I apologize for the error.