Browse Collections Artists Sources   Search Dates

Add Show    List Management    Help


Drive-By Truckers 07/15/06
9:30 Club, Washington, DC
Comments Add Comment    Source Collectors    Add to Collection    Add to Want List    History
Source # 75609 Other Sources
Entered by Kyle pike
Checksums
Disc Counts 0 / 0
Media Size
Date Circulated
Date Added
07/16/06
07/17/2006
Source Summary [16 Bit] Schoeps MK21 > KC5 > CMC6 > Oade m248 > SD722 (Chris Imburgia) 
Source Information - Download Text | Download Zip
Drive-By Truckers
7/15/2006
9:30 Club
Washington, DC

Source: Schoeps mk21 (LOC/NOS)-> kc5-> cmc6xt-> Oade m248-> SD722 (24/48)-> CD Wave-> Wavelab (16/44)-> FLAC Frontend (Level 6)-> FLAC
Taper: Chris Imburgia

(Disc 1)
1. Lookout Mountain
2. Where the Devil Don\'t Stay
3. Easy on Yourself
4. Feb 14th
5. Sound Better in the Song
6. Women Without Whiskey
7. Sinkhole
8. Never Gonna Change
9. Dead Drunk and Naked
10. Guitarman Upstairs
11. Ronnie and Neil
12. Moonlight Mile
13. My Sweet Annette
14. Marry Me
15. Aftermath USA
16. Day John Henry Died
(Disc 2)
01. Do It Yourself
02. When the Pin Hits the Shell
03. Wednesday
04. Goddamn Lonely Love
05. 18 Wheels of Love
06. Daddy\'s Cup
07. Buttholeville
08. Let There Be Rock
(Disc 3)
E:
01. World of Hurt
02. Decoration Day
03. Gravity\'s Gone
04. Putting People on the Moon
05. Outfit
06. Living Bubba
07. People Who Died

FLAC Fingerprint
----------------------------------
dbt2006-07-15d3t07.flac:71030e4117ccd42a94321fca4add1fa8
dbt2006-07-15d1t01.flac:bebdff98701b66544972886890cd8c53
dbt2006-07-15d1t02.flac:d9e126354f27f138fc384c2721eaabc0
dbt2006-07-15d1t03.flac:ecc740d78866ea1cca91f7b8bf005091
dbt2006-07-15d1t04.flac:fa728f9f0deee3ea36fa3925e841153f
dbt2006-07-15d1t05.flac:994a00cdbfcf24d635c61f9b136b2e37
dbt2006-07-15d1t06.flac:3b4fe97b5d969d8a11cb433d17cd0717
dbt2006-07-15d1t07.flac:7aa5bfaae61d1fad4089739bd05f607e
dbt2006-07-15d1t08.flac:1545421bb565e064f36ea79b23d05c96
dbt2006-07-15d1t09.flac:d50b08e0c7a985da21af3d4295057552
dbt2006-07-15d1t10.flac:6c1ed4f3bb79d71894472495364f18fc
dbt2006-07-15d1t11.flac:0508ee90b157a7024e5455053b81c6f2
dbt2006-07-15d1t12.flac:98a866f497bca6ed5dc8f57ea35c9a23
dbt2006-07-15d1t13.flac:e8af23ef6d75b20de304e4417ca2502d
dbt2006-07-15d1t14.flac:c063956094801bbe86c398951c44545d
dbt2006-07-15d1t15.flac:1a93a78a6f37491022bbce1477513a54
dbt2006-07-15d1t16.flac:b3adc7459cd3713fd31eaa91482386ce
dbt2006-07-15d2t01.flac:c6fa376997b9b28adb49ce906ba0ce2a
dbt2006-07-15d2t02.flac:ebf47982b5a18dbd7b24e98495461aed
dbt2006-07-15d2t03.flac:e040f11d5ea98b8280b475afdd15166d
dbt2006-07-15d2t04.flac:3015e9bd1b49fabcf976746443d392ea
dbt2006-07-15d2t05.flac:90a46f4d014684f36628559c0c49874c
dbt2006-07-15d2t06.flac:ba471c29174fdac9aca347e23a1791f1
dbt2006-07-15d2t07.flac:8ee967ed0e00b135ef51557fc8e1d22a
dbt2006-07-15d2t08.flac:1232be3d09fbb41c89716e46a86c8558
dbt2006-07-15d3t01.flac:cb87920b647bc41d406196feafd7be60
dbt2006-07-15d3t02.flac:180bf1e93a1eb4d58cc40ddcabbd14cd
dbt2006-07-15d3t03.flac:13b188ec0d15bffa31f7a06cc5c40f13
dbt2006-07-15d3t04.flac:9065f93afbd146c963345bc447aefbc3
dbt2006-07-15d3t05.flac:ac1cf10b40b8499bbea44a66f8ae1040
dbt2006-07-15d3t06.flac:fac892850ed2bef864a12ec21333d2c4

length     expanded size   cdr  WAVE problems filename
     5:03.60       53590364    ---   --   ---xx   dbt2006-07-15d1t01.flac
     6:06.49       64677692    ---   --   ---xx   dbt2006-07-15d1t02.flac
     3:40.02       38812748    ---   --   ---xx   dbt2006-07-15d1t03.flac
     3:45.12       39718268    ---   --   ---xx   dbt2006-07-15d1t04.flac
     4:16.00       45158444    ---   --   ---xx   dbt2006-07-15d1t05.flac
     4:25.37       46833068    ---   --   ---xx   dbt2006-07-15d1t06.flac
     4:00.03       42343100    ---   --   ---xx   dbt2006-07-15d1t07.flac
     5:14.05       55401404    ---   --   ---xx   dbt2006-07-15d1t08.flac
     5:21.48       56737340    ---   --   ---xx   dbt2006-07-15d1t09.flac
     3:51.30       40819004    ---   --   ---xx   dbt2006-07-15d1t10.flac
     5:53.09       62290412    ---   --   ---xx   dbt2006-07-15d1t11.flac
     5:25.54       57457052    ---   --   ---xx   dbt2006-07-15d1t12.flac
     4:40.44       49495532    ---   --   ---xx   dbt2006-07-15d1t13.flac
     6:07.47       64849388    ---   --   ---xx   dbt2006-07-15d1t14.flac
     4:53.53       51809900    ---   --   ---xx   dbt2006-07-15d1t15.flac
     4:06.46       43502636    ---   --   ---xx   dbt2006-07-15d1t16.flac
     3:32.43       37497980    ---   --   ---xx   dbt2006-07-15d2t01.flac
     5:27.14       57715772    ---   --   ---xx   dbt2006-07-15d2t02.flac
     5:16.54       55869452    ---   --   ---xx   dbt2006-07-15d2t03.flac
     5:49.07       61580108    ---   --   ---xx   dbt2006-07-15d2t04.flac
     8:54.46       94305836    ---   --   ---xx   dbt2006-07-15d2t05.flac
     6:15.01       66152396    ---   --   ---xx   dbt2006-07-15d2t06.flac
     7:10.17       75892028    ---   --   ---xx   dbt2006-07-15d2t07.flac
     9:08.07       96683708    ---   --   ---xx   dbt2006-07-15d2t08.flac
     6:20.56       67163756    ---   --   ---xx   dbt2006-07-15d3t01.flac
     6:47.71       71961836    ---   --   ---xx   dbt2006-07-15d3t02.flac
     3:23.54       35936252    ---   --   ---xx   dbt2006-07-15d3t03.flac
     5:33.19       58785932    ---   --   ---xx   dbt2006-07-15d3t04.flac
     4:23.64       46543772    ---   --   ---xx   dbt2006-07-15d3t05.flac
     6:23.54       67688252    ---   --   ---xx   dbt2006-07-15d3t06.flac
     6:18.04       66688652    ---   --   ---xx   dbt2006-07-15d3t07.flac
   167:36.35     1773962084 B                     (totals for 31 files, 0.6221 overall compression ratio)

Show Checksums

Comments
Add Comment
Other Sources (comments)
[16 Bit] DPA 4022 > V3 > SD... (0) Sennheiser MD421 > Sony M1... (0)
Date User Comment