Browse Collections Artists Sources   Search Dates

Add Show    List Management    Help


Disco Biscuits 05/27/06
Great Plaza at Penn's Landing, Philadelphia, PA
Comments Add Comment    Source Collectors    Add to Collection    Add to Want List    History
Source # 75908 Other Sources
Entered by SailorSaint
Checksums flac.ffp
Disc Counts 2 / 2
Media Size
Date Circulated
Date Added
05/28/06
07/21/2006
Source Summary (fob/dfc/din) Schoeps CCM4v's > Lunatec V3 > Tascam HD-P2 (24/96) Wavelab 5 (16/44.1) > CDWave > FLAC Frontend (level 6) > flac 
  Archive
Source Information - Download Text | Download Zip
The Disco Biscuits
Great Plaza at Penn\'s Landing
Jam on the River
Philadelphia, PA
5/27/06


Source: (fob/dfc/din) Schoeps CCM4v\'s > Lunatec V3 > Tascam HD-P2 (24/96)

Conversion:  Wavelab 5 (16/44.1) > CDWave > FLAC Frontend (level 6) > flac
Taped, converted and seeded by Graham Munda ([email protected])


Disc 1

01) (intro)
02) Abraxis
03) Hope
04) Spacebirdmatingcall
05) I Remember Ray

Disc 2

(set I cont.)
01) Caterpillar >
02) Run Like Hell >
03) The Great Abyss >
04) Caterpillar
(encore)
05) Highwire



*******************Shntool Output***********************
    length     expanded size   cdr  WAVE problems filename
     1:39.39       17555372    ---   --   ---xx   db2006-05-27d1t01.flac
     4:51.43       51433580    ---   --   ---xx   db2006-05-27d1t02.flac
    13:59.56      148131356    ---   --   ---xx   db2006-05-27d1t03.flac
    16:16.68      172326380    ---   --   ---xx   db2006-05-27d1t04.flac
     6:34.72       69670988    ---   --   ---xx   db2006-05-27d1t05.flac
    18:09.16      192137276    ---   --   ---xx   db2006-05-27d2t01.flac
     7:50.42       83006828    ---   --   ---xx   db2006-05-27d2t02.flac
    26:28.10      280146764    ---   --   ---xx   db2006-05-27d2t03.flac
     5:04.66       53780876    ---   --   ---xx   db2006-05-27d2t04.flac
     5:43.52       60627548    ---   --   ---xx   db2006-05-27d2t05.flac
   106:39.14        1076.52 MB                    (totals for 10 files, 0.4948 overall compression ratio)
Show Checksums
flac.ffp
db2006-05-27d1t01.flac:cc708b0e23b9eb228ce3c9f39bc9da71
db2006-05-27d1t02.flac:70214d06bdc9c8a103e835ccd69a9d66
db2006-05-27d1t03.flac:288c83dc2b5653269fa494a3e78abea5
db2006-05-27d1t04.flac:07880dbda739e7129ec9b59f4d4af95d
db2006-05-27d1t05.flac:4f77a78bc160f4f8ea6d2ba5baeac030
db2006-05-27d2t01.flac:89910d21ada16176b15ad51c13c33641
db2006-05-27d2t02.flac:02bd83c56612c5a99f349b616352d74b
db2006-05-27d2t03.flac:0a79058583fbb83ac75f159fcf87e7c8
db2006-05-27d2t04.flac:f969570f33b8504551464ab4609ee90e
db2006-05-27d2t05.flac:23e6f071acbd0f8ee2b16b0d0fa9aa57

Comments
Add Comment
Other Sources (comments)
Neumann TLM170 (hyper,... (0)
Date User Comment