Browse Collections Artists Sources   Search Dates

Add Show    List Management    Help


Phil Lesh & Friends 07/31/01
Merriweather Post Pavilion, Columbia, MD
Comments Add Comment    Source Collectors    Add to Collection    Add to Want List    History
Source # 76043 Other Sources
Entered by Matt Vernon
Checksums ffp , flac-md5
Disc Counts 2 / 3
Media Size
Date Circulated
Date Added
07/23/2006
07/23/2006
Source Summary Source: DAUD -> CEP -> CDWAV -> FLAC(level 8) EAC etc by Matt Vernon 
  Archive
Source Information - Download Text | Download Zip
Phil Lesh and Friends
7/31/01 Merriweather Post Pavilion,
Columbia, MD

Source:
DAUD -> CEP -> CDWAV -> FLAC(level 8)

EAC etc by Matt Vernon

Disc1:
Set 1:
01. Crowcd
02-Jam >
03-Dancin in the Streets >
04-Soulshine
05-FOTD >
06-Midnight Train
07-The Eleven >
08-Uncle Johns Band

Disc2:
Crowd
01 - Crowd
02-Jam >
03-Terrapin Station >
04-Wharf Rat >
05-Night of 1000 Stars >
06-Mountains of the Moon

Disc3:
01-St. Stephen >
02-Comes A Time >
03-St. Stephen >
04-Golden Road>
05-Donor Rap
06-E: I am the Walrus



    length     expanded size   cdr  WAVE problems filename
     2:09.16       22793276    ---   --   ---xx   paf2001-07-31d1t0101.flac
     9:07.37       96577868    ---   --   ---xx   paf2001-07-31d1t0102.flac
     8:39.48       91664540    ---   --   ---xx   paf2001-07-31d1t0103.flac
    10:27.24      110659292    ---   --   ---xx   paf2001-07-31d1t0104.flac
    15:00.32      158835308    ---   --   ---xx   paf2001-07-31d1t0105.flac
    10:08.05      107263004    ---   --   ---xx   paf2001-07-31d1t0106.flac
     9:14.06       97739756    ---   --   ---xx   paf2001-07-31d1t0107.flac
    11:53.29      125841452    ---   --   ---xx   paf2001-07-31d1t0108.flac
     1:01.35       10842764    ---   --   ---xx   paf2001-07-31d2t0101.flac
     3:50.51       40691996    ---   --   ---xx   paf2001-07-31d2t0102.flac
    25:17.38      267688220    ---   --   ---xx   paf2001-07-31d2t0103.flac
    15:58.17      169031228    ---   --   ---xx   paf2001-07-31d2t0104.flac
    11:38.08      123146060    ---   --   ---xx   paf2001-07-31d2t0105.flac
    12:04.38      127803020    ---   --   ---xx   paf2001-07-31d2t0106.flac
    12:33.52      132951548    ---   --   ---xx   paf2001-07-31d3t0101.flac
    10:23.43      109998380    ---   --   ---xx   paf2001-07-31d3t0102.flac
     2:20.48       24808940    ---   --   ---xx   paf2001-07-31d3t0103.flac
     5:32.41       58661276    ---   --   ---xx   paf2001-07-31d3t0104.flac
     2:53.62       30663068    ---   --   ---xx   paf2001-07-31d3t0105.flac
     6:56.29       73450652    ---   --   ---xx   paf2001-07-31d3t0106.flac
   187:10.59     1981111648 B                     (totals for 20 files, 0.5342 overall compression ratio)

Show Checksums
ffp
paf2001-07-31d1t0101.flac:b072efe1ccfbe51b7233698d3930349f
paf2001-07-31d1t0102.flac:017f724e8a68e2bff79a7c37c3bdd996
paf2001-07-31d1t0103.flac:5ef314f327770f7abbdba5266f50cf34
paf2001-07-31d1t0104.flac:c094be8bb80f56855b8668d9dfedd6af
paf2001-07-31d1t0105.flac:da46cc9253ab559616ff3bec362fd93f
paf2001-07-31d1t0106.flac:312a858ae92458a73a8dc6ae04700fea
paf2001-07-31d1t0107.flac:e3b0c5edda79ab939cc8bd390a12ec47
paf2001-07-31d1t0108.flac:96d20137d354a5d882dd39c1ab7c996e
paf2001-07-31d2t0101.flac:200c52ae6a7c071e688397a562a6d294
paf2001-07-31d2t0102.flac:5b985fdb2b0b689f66c9330b79452d31
paf2001-07-31d2t0103.flac:e798ec1d39f3c37f3967f2894b6c443f
paf2001-07-31d2t0104.flac:355f4fb76396d134e5ee4323523e5733
paf2001-07-31d2t0105.flac:7d1e2f9507dd3d948870cccc7ff11c22
paf2001-07-31d2t0106.flac:ca2433db55ffb8b1fbeb90aec1f2c44c
paf2001-07-31d3t0101.flac:a26db4bb45759bc23ed5e6bd7b317179
paf2001-07-31d3t0102.flac:7e399e0f92bf399906ca3635928052f9
paf2001-07-31d3t0103.flac:048041a076e88880246f0bee7d137bb4
paf2001-07-31d3t0104.flac:c6fe4d2e5346b4205027427c6e4ccc2f
paf2001-07-31d3t0105.flac:94b1833d968ded147d67b5017defe63b
paf2001-07-31d3t0106.flac:1e82dc06d7063b0a6c9d169d0b0351fd
flac-md5
856ee80e2f5f4467b749836961792555 *paf2001-07-31d1t0101.flac
3ac5eb00f6e2ed9776417cdd421b7cad *paf2001-07-31d1t0102.flac
df94de3318d9655babd7bf4eb889f56a *paf2001-07-31d1t0103.flac
3169f8feb95c381bff9f1e1dc4b055df *paf2001-07-31d1t0104.flac
f179aed999df09fb15b0d5620ac43c09 *paf2001-07-31d1t0105.flac
38373acbac489c551aaddb776111af73 *paf2001-07-31d1t0106.flac
036a74b775f09a8073b5227cf1001f41 *paf2001-07-31d1t0107.flac
b39aa737237a07ef607205c0ad485b36 *paf2001-07-31d1t0108.flac
68f744daec50ee7421d2a6661d3f947d *paf2001-07-31d2t0101.flac
4debc91d3242ba942226d934f40556f7 *paf2001-07-31d2t0102.flac
7e5ae714ab60fc9dd6c95a59436f9923 *paf2001-07-31d2t0103.flac
8a24b27757760bf776b0d54408e1e235 *paf2001-07-31d2t0104.flac
04396cc0d5bac1977fa34cd647e6470f *paf2001-07-31d2t0105.flac
344eeb2c15fa0d21f9978ae4a76e60da *paf2001-07-31d2t0106.flac
ec2bed92193cd984ae46f006f823063e *paf2001-07-31d3t0101.flac
2f2253fad34df88d29e1fc797af353f0 *paf2001-07-31d3t0102.flac
18fd13fb3592da6f3d76b8d361bc4620 *paf2001-07-31d3t0103.flac
a5216f2ff4fca668d6be2625f656aeff *paf2001-07-31d3t0104.flac
a1317f80b315c85d59c3fa57910c9d76 *paf2001-07-31d3t0105.flac
ee9a0cb1d46ddbc981c1eb49eaffddb2 *paf2001-07-31d3t0106.flac

Comments
Add Comment
Other Sources (comments)
Source: Oktava MC012... (0)
Date User Comment