Browse Collections Artists Sources   Search Dates

Add Show    List Management    Help


Grateful Dead 09/26/91
Boston Garden, Boston, MA
Comments Add Comment    Source Collectors    Add to Collection    Add to Want List    History
Source # 76050 Other Sources
Entered by Matt Vernon
Checksums ffp , flac-md5
Disc Counts 2 / 2
Media Size
Date Circulated
Date Added
07/22/2006
07/23/2006
Source Summary flac16; Recording Info: SBD -> Dat -> Cassette Master (TDK SA100) Transfer Info: Cassette Master (Sony TC-WE475) -> Apogee MiniMe -> Samplitude Professional v7.02 -> FLAC All Transfers and Mastering By Charlie Miller 
  Archive
Source Information - Download Text | Download Zip
Grateful Dead - September 26, 1991
Boston Garden - Boston, MA


Recording Info:
SBD -> Dat -> Cassette Master (TDK SA100)

Transfer Info:
Cassette Master (Sony TC-WE475) -> Apogee MiniMe ->
Samplitude Professional v7.02 -> FLAC
(2 Discs Audio / 2 Discs FLAC)

All Transfers and Mastering By Charlie Miller
[email protected]
July 22, 2006



Notes:
-- Encores moved to end of 1st Set to fit show onto 2 Discs
-- All Transfers and Mastering done in 24bit/48k
-- Resampled and dithered to 16bit/44.k1 with Samplitude
-- This is an upgrade to all other circulating copies
-- Last 2 seconds of Cumberland supplied by Jeff Fishman's source
-- Most of d2t01 supplied by Jeff Fishman's source


Set 1:

d1t01 - Tuning

d1t02 - Jack Straw ->

d1t03 - Cold Rain And Snow

d1t04 - Wang Dang Doodle

d1t05 - Candyman

d1t06 - Mexicali Blues ->

d1t07 - Cumberland Blues

d1t08 - Picasso Moon ->

d1t09 - Box Of Rain



Set 2:

d2t01 - Tuning

d2t02 - Dark Star ->

d2t03 - Saint Of Circumstance ->

d2t04 - Eyes Of The World ->

d2t05 - Drums ->

d2t06 - Space ->

d2t07 - The Other One ->

d2t08 - Dark Star ->

d2t09 - Attics Of My Life ->

d2t10 - Good Lovin'



Encore:

d1t10 - Brokedown Palace ->

d1t11 - And We Bid You Good Night





SHNTOOL OUTPUT:

    length     expanded size   cdr  WAVE problems filename

     5:03.50       53566844    ---   --   -----   gd91-09-26d1t01.wav

     5:42.55       60458204    ---   --   -----   gd91-09-26d1t02.wav

     9:15.53       98026700    ---   --   -----   gd91-09-26d1t03.wav

     9:36.14      101639372    ---   --   -----   gd91-09-26d1t04.wav

    10:10.48      107716940    ---   --   -----   gd91-09-26d1t05.wav

     5:32.40       58658924    ---   --   -----   gd91-09-26d1t06.wav

     7:40.58       81280460    ---   --   -----   gd91-09-26d1t07.wav

     6:35.54       69805052    ---   --   -----   gd91-09-26d1t08.wav

     4:53.08       51704060    ---   --   -----   gd91-09-26d1t09.wav

     5:37.18       59489180    ---   --   -----   gd91-09-26d1t10.wav

     2:54.37       30780668    ---   --   -----   gd91-09-26d1t11.wav

     2:08.49       22694492    ---   --   -----   gd91-09-26d2t01.wav

    13:05.68      138633980    ---   --   -----   gd91-09-26d2t02.wav

     6:36.02       69859148    ---   --   -----   gd91-09-26d2t03.wav

    12:31.70      132641084    ---   --   -----   gd91-09-26d2t04.wav

     9:04.10       95985164    ---   --   -----   gd91-09-26d2t05.wav

    10:33.46      111769436    ---   --   -----   gd91-09-26d2t06.wav

     7:25.09       78519212    ---   --   -----   gd91-09-26d2t07.wav

     6:12.36       65705516    ---   --   -----   gd91-09-26d2t08.wav

     5:40.21       60025436    ---   --   -----   gd91-09-26d2t09.wav

     6:35.30       69748604    ---   --   -----   gd91-09-26d2t10.wav

   152:56.26     1618708476 B                     (totals for 21 files)

seeded to http://server2.deadacated.com:9000/index.html
Show Checksums
ffp
gd91-09-26d1t01.flac:e93fde39cf477c8fa8a08d95651dec3a
gd91-09-26d1t02.flac:cad0a29bb639471a4bcb6c78f6bc6953
gd91-09-26d1t03.flac:26daf4465ff98746ecc2397b04fdb08e
gd91-09-26d1t04.flac:382fc3a3e3ce079810d6693d9547b36c
gd91-09-26d1t05.flac:285bd725ecb92908d368c6b378987394
gd91-09-26d1t06.flac:9b1971ef0122dc7b7c2f58deb61406a2
gd91-09-26d1t07.flac:cecc85ffc7c9cfc86dc3fb3401d143bb
gd91-09-26d1t08.flac:669bbd78a01390f92bd5f80ec9ff3917
gd91-09-26d1t09.flac:cabe626a879c86ec262dc855525a78a8
gd91-09-26d1t11.flac:493104b223185f1503eb05b91d216ba0
gd91-09-26d1t10.flac:a05dfe0c0f5cf8fb7c2ec93e3e6fd6af
gd91-09-26d2t01.flac:85170ca564320b3b3fc1a92b738dfcf4
gd91-09-26d2t02.flac:883165e8a45629664e94b15b222bd34f
gd91-09-26d2t03.flac:c6b95eb855a5fd5e7ba2060d60460005
gd91-09-26d2t04.flac:5436918461ac56e91105b0f831985c80
gd91-09-26d2t05.flac:d9aa9277a51d16061eaae3262a84f670
gd91-09-26d2t06.flac:4c72d211674acaebcee25e99dfb441a0
gd91-09-26d2t07.flac:4f8ac39817d32933bedbddc9b53e14a4
gd91-09-26d2t08.flac:9363b16d04b1f9bc212e0e6335769682
gd91-09-26d2t09.flac:19ac2d51215d4636b64d9657352859e0
gd91-09-26d2t10.flac:5e5796aec6d94bb379e58eef04c56826
flac-md5
a003925e8f25aafd9b95e0c7c4f5667e *gd91-09-26d1t01.flac
3e7b848dd902d03127c57f87e4dd5573 *gd91-09-26d1t02.flac
441c651e99cd568acc43579facfef5ac *gd91-09-26d1t03.flac
0ac601dc8bf0aeb03e741957f4752833 *gd91-09-26d1t04.flac
6b0580cce7f06534c6f0b38bf5de66a9 *gd91-09-26d1t05.flac
d3e83c3de1d6650ce8cae523b3aaa04c *gd91-09-26d1t06.flac
6be1cbc14705a0f848a313f81aa781ea *gd91-09-26d1t07.flac
dac8d683499fb3b20a8f50a54242c12d *gd91-09-26d1t08.flac
4f3bf54c57bb25dc34ab5793f75d74e7 *gd91-09-26d1t09.flac
33a64129456655fdf9142d6c78885c1e *gd91-09-26d1t11.flac
f4626d732b48ea045e6646604e424f63 *gd91-09-26d1t10.flac
94bd858dab09672317e9d238c599d81f *gd91-09-26d2t01.flac
e8be447dad9eb8ef22f0e41813b51dd5 *gd91-09-26d2t02.flac
bc23566d2e0b816cd65e4ebef2662294 *gd91-09-26d2t03.flac
d27e04821fc59ef5f6e5f33bbad4f305 *gd91-09-26d2t04.flac
466e641e9be73b3877f0b0675f9cf0b8 *gd91-09-26d2t05.flac
635e511bd380e67258b8ee4f51d600ff *gd91-09-26d2t06.flac
73ca764096823656a51d1f26a6c9fbe0 *gd91-09-26d2t07.flac
b64a09284a5cace47cb7eacd4f2f8940 *gd91-09-26d2t08.flac
8da752ec58007681479558ef3c465ee5 *gd91-09-26d2t09.flac
288c372d73b8f6ce66d63f9fe7f96524 *gd91-09-26d2t10.flac

Comments
Add Comment
Other Sources (comments)
SBD> MC> DAT> CDA; high... (1) SBD(1)>DAT>CD>EAC>CDWAVE>MK... (6) flac16/48; Set 2... (0) flac16; Set 2 only -... (1) flac16; AUD Source:... (0) flac16/48; AUD... (0) flac16; Sennheiser... (0) flac16; Matrix by... (0) flac16; Recording... (1) flac16; Lineage:... (0) flac16; Matrix of... (0) DTS Audio 5.1; Mix... (0) flac24; Master... (0) flac16; Master... (0) flac24; Master... (0) flac16; Master... (0) flac16; DSBD Masters... (0) flac16/48kHz;... (0)
Date User Comment