Browse Collections Artists Sources   Search Dates

Add Show    List Management    Help


Widespread Panic 07/22/06
Winter Park Resort, Winter Park, CO
Comments Add Comment    Source Collectors    Add to Collection    Add to Want List    History
Source # 76162 Other Sources
Entered by Scott Sebok
Checksums FFP
Disc Counts 2 / 3
Media Size
Date Circulated
Date Added
07/24/2006
07/29/2006
Source Summary MK4 > ORTF > KC5 > CMC6 > KindKables > V3 > SPDIF > MT24/48 (HPF 0) 
Source Information - Download Text | Download Zip
Widespread Panic
07/22/06
Winter Park Resort
Winter Park, CO

Source : MK4 > ORTF > KC5 > CMC6 > KindKables > V3 > SPDIF > MT24/48 (HPF 0)

Location: FOB/DFC through Ain't Life Grand, then moved to left corner of the Tapersection by WP, 15' off Center Stand at 6'

Transfer: MT24/48>usb>CDWave>Fades with Wavelab 5.0>FLAC (level 7)

Taped and Transfered by: Bennett Schwartz (coloartist)

***Support Live Music***

www.widespreadpanic.com
www.skiwinterpark.com

Set 1/Disc 1:
1) Intro
2) Tall Boy* >
3) Bear's Gone Fishin'* >
4) Blue Indian**,
5) Travelin' Man* >
6) Stop Breakin' Down Blues*,
7) Wondering*,
8) Worry >
9) And It Stoned Me,
10) North

Set 2/Disc 2:
1)
2) Use Me*,
3) Ain't Life Grand,
4) Rebirtha >
5) Drums >
6) Jam
7) Fishwater >

Disc 3:
1) Maggot Brain >
2) Henry Parsons Died >
3) A of D*** >
4) The Last Straw*** >
5) Weak Brain, Narrow Mind*** >
6) Bowlegged Woman*** >
7) Action Man***
Encore:
8)
9) From The Cradle,
10) Baby, Let Me Follow You Down

* with John Keane on guitar
** with John Keane on pedal steel
*** with Sam Holt on guitar

http://share.shutterfly.com/action/...sid=9YasmzNqwrw

Flac:

wsp2006-07-22d2t06.flac:430d090982e90ff1c899ee923c346b91
wsp2006-07-22d2t07.flac:385df32ca4e135c138745bfe8042d4cc
wsp2006-07-22d3t01.flac:b32dbe4e325207036c1d7784a6c944e7
wsp2006-07-22d3t02.flac:f58f08c71e3a5f05cfb30d166854aafa
wsp2006-07-22d3t03.flac:d9d0be79503d9c4d81669ae6699ef832
wsp2006-07-22d3t04.flac:0cc0a88dd8c9a2a90ac92a9a883bdbf8
wsp2006-07-22d3t05.flac:f4f8c03b8471522dd116d827619e1bec
wsp2006-07-22d3t06.flac:5346a5214657b9f134ace1f5c7bc947e
wsp2006-07-22d3t07.flac:de1aaf773cc25186cddee9635ca30f4c
wsp2006-07-22d3t08.flac:86d459dbd3171848d5e5d7e1d7921788
wsp2006-07-22d3t09.flac:c9420bc0a74cb2cbfef5378b3d3c7a74
wsp2006-07-22d3t10.flac:7d134517cc7500a4daa77924b60371f2
wsp2006-07-22d1t01.flac:b86409262bd7b0616600a4913ada3dc3
wsp2006-07-22d1t02.flac:c53ccb1b105697abe875326f2d973d6f
wsp2006-07-22d1t03.flac:119a4a1145d8d12030a2bbc554c15e37
wsp2006-07-22d1t04.flac:b36e8b7b49ab12119162c19c1fd5ad9c
wsp2006-07-22d1t05.flac:09863363964ab30c9fb7af72a2a6027c
wsp2006-07-22d1t06.flac:e5d52f0eaf6744ff915f5d69a628453f
wsp2006-07-22d1t07.flac:2813fdeb1cb28bd9c1257d65b20a874b
wsp2006-07-22d1t08.flac:e0346d69932b6f68be7fcea07a81c628
wsp2006-07-22d1t09.flac:b1cccb94b28d8f3a2eebe2d3856951f3
wsp2006-07-22d1t10.flac:ca20e1e1a38b5bc3b36867e766b6d382
wsp2006-07-22d2t01.flac:0db08bffc8534ba2ad2e7f7ff36d7119
wsp2006-07-22d2t02.flac:6bc0b656b936e1a9ced980cb2d260f8c
wsp2006-07-22d2t03.flac:5ee32667a42f4744870177d4890fe412
wsp2006-07-22d2t04.flac:648b13890d4014eac6c3c37c93c0314f
wsp2006-07-22d2t05.flac:40d3afd3721919a886e9d99bde94c6f2





ShnTool:
    length     expanded size   cdr  WAVE problems filename
     1:01.68       10920380    ---   --   ---xx   wsp2006-07-22d1t01.flac
     5:27.37       57769868    ---   --   ---xx   wsp2006-07-22d1t02.flac
     8:59.59       95218412    ---   --   ---xx   wsp2006-07-22d1t03.flac
     6:22.09       67406012    ---   --   ---xx   wsp2006-07-22d1t04.flac
     5:58.31       63224156    ---   --   ---xx   wsp2006-07-22d1t05.flac
     6:41.38       70825820    ---   --   ---xx   wsp2006-07-22d1t06.flac
     5:13.41       55309676    ---   --   ---xx   wsp2006-07-22d1t07.flac
     7:17.19       77131532    ---   --   ---xx   wsp2006-07-22d1t08.flac
     5:27.01       57685196    ---   --   ---xx   wsp2006-07-22d1t09.flac
     6:58.60       73876364    ---   --   ---xx   wsp2006-07-22d1t10.flac
     1:12.37       12787868    ---   --   ---xx   wsp2006-07-22d2t01.flac
    10:52.14      115045772    ---   --   ---xx   wsp2006-07-22d2t02.flac
     5:46.45       61140284    ---   --   ---xx   wsp2006-07-22d2t03.flac
    10:38.02      112547948    ---   --   ---xx   wsp2006-07-22d2t04.flac
     7:07.50       75440444    ---   --   ---xx   wsp2006-07-22d2t05.flac
     6:07.42       64837628    ---   --   ---xx   wsp2006-07-22d2t06.flac
     8:00.50       84789644    ---   --   ---xx   wsp2006-07-22d2t07.flac
     5:41.56       60284156    ---   --   ---xx   wsp2006-07-22d3t01.flac
     6:48.06       71985356    ---   --   ---xx   wsp2006-07-22d3t02.flac
     3:35.26       37987196    ---   --   ---xx   wsp2006-07-22d3t03.flac
     8:24.62       89051468    ---   --   ---xx   wsp2006-07-22d3t04.flac
     3:33.59       37712012    ---   --   ---xx   wsp2006-07-22d3t05.flac
     9:44.29      103085852    ---   --   ---xx   wsp2006-07-22d3t06.flac
     4:40.54       49519052    ---   --   ---xx   wsp2006-07-22d3t07.flac
     2:35.37       27429068    ---   --   ---xx   wsp2006-07-22d3t08.flac
     4:16.42       45257228    ---   --   ---xx   wsp2006-07-22d3t09.flac
     2:57.26       31283996    ---   --   ---xx   wsp2006-07-22d3t10.flac
   161:31.25     1709552388 B                     (totals for 27 files, 0.5567
Show Checksums
FFP
wsp2006-07-22d2t06.flac:430d090982e90ff1c899ee923c346b91
wsp2006-07-22d2t07.flac:385df32ca4e135c138745bfe8042d4cc
wsp2006-07-22d3t01.flac:b32dbe4e325207036c1d7784a6c944e7
wsp2006-07-22d3t02.flac:f58f08c71e3a5f05cfb30d166854aafa
wsp2006-07-22d3t03.flac:d9d0be79503d9c4d81669ae6699ef832
wsp2006-07-22d3t04.flac:0cc0a88dd8c9a2a90ac92a9a883bdbf8
wsp2006-07-22d3t05.flac:f4f8c03b8471522dd116d827619e1bec
wsp2006-07-22d3t06.flac:5346a5214657b9f134ace1f5c7bc947e
wsp2006-07-22d3t07.flac:de1aaf773cc25186cddee9635ca30f4c
wsp2006-07-22d3t08.flac:86d459dbd3171848d5e5d7e1d7921788
wsp2006-07-22d3t09.flac:c9420bc0a74cb2cbfef5378b3d3c7a74
wsp2006-07-22d3t10.flac:7d134517cc7500a4daa77924b60371f2
wsp2006-07-22d1t01.flac:b86409262bd7b0616600a4913ada3dc3
wsp2006-07-22d1t02.flac:c53ccb1b105697abe875326f2d973d6f
wsp2006-07-22d1t03.flac:119a4a1145d8d12030a2bbc554c15e37
wsp2006-07-22d1t04.flac:b36e8b7b49ab12119162c19c1fd5ad9c
wsp2006-07-22d1t05.flac:09863363964ab30c9fb7af72a2a6027c
wsp2006-07-22d1t06.flac:e5d52f0eaf6744ff915f5d69a628453f
wsp2006-07-22d1t07.flac:2813fdeb1cb28bd9c1257d65b20a874b
wsp2006-07-22d1t08.flac:e0346d69932b6f68be7fcea07a81c628
wsp2006-07-22d1t09.flac:b1cccb94b28d8f3a2eebe2d3856951f3
wsp2006-07-22d1t10.flac:ca20e1e1a38b5bc3b36867e766b6d382
wsp2006-07-22d2t01.flac:0db08bffc8534ba2ad2e7f7ff36d7119
wsp2006-07-22d2t02.flac:6bc0b656b936e1a9ced980cb2d260f8c
wsp2006-07-22d2t03.flac:5ee32667a42f4744870177d4890fe412
wsp2006-07-22d2t04.flac:648b13890d4014eac6c3c37c93c0314f
wsp2006-07-22d2t05.flac:40d3afd3721919a886e9d99bde94c6f2

Comments
Add Comment
Date User Comment