Browse Collections Artists Sources   Search Dates

Add Show    List Management    Help


Zero 05/01/98
319 Club, Chico, CA
Comments Add Comment    Source Collectors    Add to Collection    Add to Want List    History
Source # 76215 Other Sources
Entered by skbnut
Checksums ffp , md5
Disc Counts 2 / 2
Media Size
Date Circulated
Date Added
07/22/2006
07/31/2006
Source Summary (Stage) Microtech-Gefell M300 > Aphex 107 > Phillips ISP 5022 > Dat > Sound Forge > SHN > Samplitude > Flac 
Source Information - Download Text | Download Zip
Zero - May 1, 1998
319 Club - Chico, CA

Recording Info:
(Stage) Microtech-Gefell M300 -> Aphex 107 -> Phillips ISP 5022 ->
Dat (Tascam DA-P1) -> Sound Forge -> SHN

Transfer Info:
SHN -> Samplitude v7.02 Professional -> FLAC
(2 Discs Audio / 1 Disc FLAC)

Recorded By Brian Abramson
Transferred By Charlie Miller
[email protected]
July 22, 2006

Set 1:
d1t01 - Tuning
d1t02 - Anorexia ->
d1t03 - Turn On Your Lovelight ->
d1t04 - Anorexia
d1t05 - Catalina
d1t06 - Feeling Alright
d1t07 - Severe Tire Damage
d1t08 - The Shape I'm In

Set 2:
d2t01 - Papa Was A Rolling Stone ->
d2t02 - Gregg's Eggs ->
d2t03 - Afro Blue ->
d2t04 - Gregg's Eggs ->
d2t05 - Sun Sun Sun
d2t06 - Possession ->
d2t07 - For What It's Worth ->
d2t08 - Mona ->
d2t09 - Not Fade Away ->
d2t10 - Mona

Encore:
d2t11 - Up On Cripple Creek


SHNTOOL OUTPUT:
    length     expanded size   cdr  WAVE problems filename
     1:57.55       20768204    ---   --   -----   zero1998-05-01d1t01.wav
     5:34.38       59007020    ---   --   -----   zero1998-05-01d1t02.wav
     3:01.68       32088380    ---   --   -----   zero1998-05-01d1t03.wav
     2:28.02       26111948    ---   --   -----   zero1998-05-01d1t04.wav
    10:28.12      110807468    ---   --   -----   zero1998-05-01d1t05.wav
    11:54.66      126104876    ---   --   -----   zero1998-05-01d1t06.wav
    11:28.28      121429100    ---   --   -----   zero1998-05-01d1t07.wav
     7:58.04       84328652    ---   --   -----   zero1998-05-01d1t08.wav
     9:10.36       97104716    ---   --   -----   zero1998-05-01d2t01.wav
     6:33.00       69325244    ---   --   -----   zero1998-05-01d2t02.wav
    10:18.69      109177532    ---   --   -----   zero1998-05-01d2t03.wav
     1:09.29       12239852    ---   --   -----   zero1998-05-01d2t04.wav
     3:31.60       37361564    ---   --   -----   zero1998-05-01d2t05.wav
     9:42.71      102831836    ---   --   -----   zero1998-05-01d2t06.wav
     8:05.61       85697516    ---   --   -----   zero1998-05-01d2t07.wav
     1:46.50       18816044    ---   --   -----   zero1998-05-01d2t08.wav
     4:33.18       48199580    ---   --   -----   zero1998-05-01d2t09.wav
     6:11.73       65616140    ---   --   -----   zero1998-05-01d2t10.wav
    11:37.65      123103724    ---   --   -----   zero1998-05-01d2t11.wav
   127:33.55     1350119396 B                     (totals for 19 files)
Show Checksums
ffp
zero1998-05-01d1t01.flac:2560a50ee787175d090ffc3bba4dc5dc
zero1998-05-01d1t02.flac:13c6057a512cfd2474d4b7e6b2eec9db
zero1998-05-01d1t03.flac:9e6712ccef0722d9088f7885fbb212ee
zero1998-05-01d1t04.flac:e80c05f73b785ec5759cba63840b5248
zero1998-05-01d1t05.flac:3f92a3baef6be8ab48c707647f727b1a
zero1998-05-01d1t06.flac:136f6e6f29d01bd6f1215015272b046d
zero1998-05-01d1t07.flac:1dd4653b9252f9c564c9a1fde5d09c82
zero1998-05-01d1t08.flac:590fc32282c58ffb8df6c8ad92487a0d
zero1998-05-01d2t01.flac:9eba5ac6b0bb166e62f2c23a200245ad
zero1998-05-01d2t02.flac:a169e15c4dc6beea4821a50bf7a35a73
zero1998-05-01d2t03.flac:13c2388f7597fdbc43fdb6eb94655717
zero1998-05-01d2t04.flac:bb90be199203776096f90df1fbb0200e
zero1998-05-01d2t05.flac:cb6797b323787a0354138570fd51aa43
zero1998-05-01d2t06.flac:0c9137c990823315c9c6bd10af006033
zero1998-05-01d2t07.flac:6236d27db811e92ef7296a0e5d676832
zero1998-05-01d2t08.flac:ec6d323fd98f172214a390c3c8bc1757
zero1998-05-01d2t09.flac:f9fc93d84d13d239ff3250a001b46055
zero1998-05-01d2t10.flac:4116d9b4cb6c0ceda257a255f1c331c2
zero1998-05-01d2t11.flac:fb7821d74d47edb006d9c324553b30d5
md5
f0f3c6e60f82943747dff4529dd9c080 *zero1998-05-01d1t01.flac
49a27016448d18b24b582a75d033faf7 *zero1998-05-01d1t02.flac
653acdb4474424dda1d30c2e20639dd6 *zero1998-05-01d1t03.flac
64cd09fb54f0037d631adcac54b517b3 *zero1998-05-01d1t04.flac
431f7bae3f7966221f46d4e2079af57e *zero1998-05-01d1t05.flac
cd809305b40b53b9477f2ec8cc9443a3 *zero1998-05-01d1t06.flac
24b4524cd833e206785e83532cb86fd8 *zero1998-05-01d1t07.flac
c49e2de3ffd6f44819c8827d9733ca80 *zero1998-05-01d1t08.flac
5fd4b078de0cf25d38d584ac8614cf6e *zero1998-05-01d2t01.flac
6accb28b3522036c86e1638f73dfcfe5 *zero1998-05-01d2t02.flac
bfbdbd2705b75c15225833513cdda6a7 *zero1998-05-01d2t03.flac
ef7b26ac6d47919da35fbf31b449754c *zero1998-05-01d2t04.flac
e783ec127ee1f897101641fb329b40e3 *zero1998-05-01d2t05.flac
5acd17e6bb801d7fa1447540bd0bbabd *zero1998-05-01d2t06.flac
6392ef98709c57c53198c57c8b0baffe *zero1998-05-01d2t07.flac
1d08a20c3168ed64aea865bdb74b5b4f *zero1998-05-01d2t08.flac
8543d90993810b21a33aff0374021771 *zero1998-05-01d2t09.flac
e8357f7c1d2a7f6e8dc149d7c3ceecfb *zero1998-05-01d2t10.flac
2d5ffa9cf3646598833c3e7ea6ed9fab *zero1998-05-01d2t11.flac

Comments
Add Comment
Date User Comment