Browse Collections Artists Sources   Search Dates

Add Show    List Management    Help


Zero 05/03/98
Cafe Tomo, Arcata, CA
Comments Add Comment    Source Collectors    Add to Collection    Add to Want List    History
Source # 76216 Other Sources
Entered by skbnut
Checksums ffp , md5
Disc Counts 2 / 2
Media Size
Date Circulated
Date Added
07/22/2006
07/31/2006
Source Summary (Stage) Microtech-Gefell M300 > Aphex 107 > Phillips ISP 5022 > Dat > Sound Forge > SHN > Samplitude > Flac 
Source Information - Download Text | Download Zip
Zero - May 3, 1998
Cafe Tomo - Arcata, CA

Recording Info:
(Stage) Microtech-Gefell M300 -> Aphex 107 -> Phillips ISP 5022 ->
Dat (Tascam DA-P1) -> Sound Forge -> SHN

Transfer Info:
SHN -> Samplitude v7.02 Professional -> FLAC
(2 Discs Audio / 2 Discs FLAC)

Recorded By Brian Abramson
Transferred By Charlie Miller
[email protected]
July 22, 2006

Set 1:
d1t01 - Tuning
d1t02 - Up On Cripple Creek ->
d1t03 - Six Days On The Road
d1t04 - Anorexia
d1t05 - Roll Me Over
d1t06 - Rigor Mortis ->
d1t07 - Home on The Range

Set 2:
d2t01 - Its Up To You ->
d2t02 - Mona ->
d2t03 - Its Up To You
d2t04 - Favela
d2t05 - Willin'
d2t06 - Spoonful
d2t07 - Mercury Blues

Encore:
d2t08 - La Fiesta
d2t09 - Pits Of Thunder


SHNTOOL OUTPUT:
    length     expanded size   cdr  WAVE problems filename
     1:54.05       20121404    ---   --   -----   zero1998-05-03d1t01.wav
    11:47.37      124801868    ---   --   -----   zero1998-05-03d1t02.wav
     7:54.06       83627756    ---   --   -----   zero1998-05-03d1t03.wav
     9:04.28       96027500    ---   --   -----   zero1998-05-03d1t04.wav
     8:21.55       88505804    ---   --   -----   zero1998-05-03d1t05.wav
    17:55.12      189658268    ---   --   -----   zero1998-05-03d1t06.wav
    14:44.41      156034076    ---   --   -----   zero1998-05-03d1t07.wav
     8:19.61       88167116    ---   --   -----   zero1998-05-03d2t01.wav
     7:02.31       74513756    ---   --   -----   zero1998-05-03d2t02.wav
     2:29.20       26330684    ---   --   -----   zero1998-05-03d2t03.wav
     8:19.03       88030700    ---   --   -----   zero1998-05-03d2t04.wav
     9:07.51       96610796    ---   --   -----   zero1998-05-03d2t05.wav
     9:48.34      103803212    ---   --   -----   zero1998-05-03d2t06.wav
    11:18.61      119742716    ---   --   -----   zero1998-05-03d2t07.wav
     7:43.14       81706172    ---   --   -----   zero1998-05-03d2t08.wav
     9:48.24      103779692    ---   --   -----   zero1998-05-03d2t09.wav
   145:38.33     1541461520 B                     (totals for 16 files)
Show Checksums
ffp
zero1998-05-03d1t01.flac:8871119d3b04262217d707dcab188603
zero1998-05-03d1t02.flac:6c0fd994e7a4080888dd19bb356ac02f
zero1998-05-03d1t03.flac:43e003eabd07b4c6686bdad8e5ea4367
zero1998-05-03d1t04.flac:b12e1273a864a087fb07a6f31e87f9db
zero1998-05-03d1t05.flac:83a20816126c2421d7733a096dd3b39a
zero1998-05-03d1t06.flac:05ec6469ad01f14fd31824dc7f40f6e3
zero1998-05-03d1t07.flac:20522dcaadaa3a1fd91a4650034cd9d4
zero1998-05-03d2t01.flac:e28e72c5af7bfde7d5777fe086a0c9fb
zero1998-05-03d2t02.flac:8979944384e9a3d7a23bdf53d1fe485e
zero1998-05-03d2t03.flac:556aac11998a26b793d76ce6fc631603
zero1998-05-03d2t04.flac:2162198d1328a0ece9276932bad0a794
zero1998-05-03d2t05.flac:c509022eaf5018acb77f9444c9148e8e
zero1998-05-03d2t06.flac:6998817dd6e00ccb93ebde8a337c9fa3
zero1998-05-03d2t07.flac:f3b4dddd33d49bad2c209ca92e1668ee
zero1998-05-03d2t08.flac:17da4a44e800d4e9eb9ac2fe89d385ca
zero1998-05-03d2t09.flac:a48c7a5cdd5cd1e7501720af8c9200c3
md5
c033aa0901337e7069523d1b6c2bf45b *zero1998-05-03d1t01.flac
cd4e571183ffe70fcc52a008d45f24d4 *zero1998-05-03d1t02.flac
cebf2e4ae158e860bb5c55b9e34ddfae *zero1998-05-03d1t03.flac
bbe6b1946b703e71a968dbc1d56932c1 *zero1998-05-03d1t04.flac
3b57130490f610e606a18297f677f5db *zero1998-05-03d1t05.flac
396fbc0ed27aed6760a5094dc9ae8d84 *zero1998-05-03d1t06.flac
3339c8ebaebedd3ba09581fcf7eed465 *zero1998-05-03d1t07.flac
57fc9c9131681469fdd1252e1ce5b9cb *zero1998-05-03d2t01.flac
1fdfa02aec8c0dac56bc5cb05c1ec54a *zero1998-05-03d2t02.flac
23a8789af24c6bb30fd38dcf3a1eb31d *zero1998-05-03d2t03.flac
de78b5e3fbfe566d0f8ec2fc5915aa1e *zero1998-05-03d2t04.flac
832fcae7d4d92e180993f29b9670c1da *zero1998-05-03d2t05.flac
d185a5bd72d929c5c5df16a992ef3e71 *zero1998-05-03d2t06.flac
419bc3cde630360d209fb8b46c1a6bc0 *zero1998-05-03d2t07.flac
44b3a494c2c600e2816539a5ef06c535 *zero1998-05-03d2t08.flac
1f92989930a8face6371f60c88561bd9 *zero1998-05-03d2t09.flac

Comments
Add Comment
Other Sources (comments)
Source: SBD>DAT>CDR... (0)
Date User Comment