Browse Collections Artists Sources   Search Dates

Add Show    List Management    Help


Zero 05/24/98
CubbyBear, Chicago, IL
Comments Add Comment    Source Collectors    Add to Collection    Add to Want List    History
Source # 76217 Other Sources
Entered by skbnut
Checksums ffp , md5
Disc Counts 2 / 2
Media Size
Date Circulated
Date Added
07/22/2006
07/31/2006
Source Summary (Stage) Microtech-Gefell M300 > Aphex 107 > Phillips ISP 5022 > Dat > Sound Forge > SHN > Samplitude > Flac 
Source Information - Download Text | Download Zip
Zero - May 24, 1998
The Cubby Bear - Chicago, IL

Recording Info:
(Stage) Microtech-Gefell M300 -> Aphex 107 -> Phillips ISP 5022 ->
Dat (Tascam DA-P1) -> Sound Forge -> SHN

Transfer Info:
SHN -> Samplitude v7.02 Professional -> FLAC
(2 Discs Audio / 2 Discs FLAC)

Recorded By Brian Abramson
Transferred By Charlie Miller
[email protected]
July 22, 2006

Set 1:
d1t01 - Rigor Mortis
d1t02 - Up On Cripple Creek
d1t03 - Friday's Child
d1t04 - Mr. Broadway
d1t05 - Running On Faith
d1t06 - Possession
d1t07 - Highway 61 Revisited

Set 2:
d2t01 - It's Up to You ->
d2t02 - Mona ->
d2t03 - Who Do You Love ->
d2t04 - Mona
d2t05 - Favela
d2t06 - Papa Was A Rolling Stone ->
d2t07 - If 6 was 9 ->
d2t08 - Gregg's Eggs
d2t09 - Junko Partner
d2t10 - Home on the Range

Encore:
d2t11 - Chance In A Million


SHNTOOL OUTPUT:
    length     expanded size   cdr  WAVE problems filename
    12:09.42      128694428    ---   --   -----   zero1998-05-24d1t01.wav
    11:29.02      121544348    ---   --   -----   zero1998-05-24d1t02.wav
    10:06.18      106940780    ---   --   -----   zero1998-05-24d1t03.wav
     8:50.54       93619052    ---   --   -----   zero1998-05-24d1t04.wav
    11:19.19      119820332    ---   --   -----   zero1998-05-24d1t05.wav
     5:35.68       59253980    ---   --   -----   zero1998-05-24d1t06.wav
     9:19.63       98755820    ---   --   -----   zero1998-05-24d1t07.wav
     8:29.08       89806460    ---   --   -----   zero1998-05-24d2t01.wav
     4:23.17       46433228    ---   --   -----   zero1998-05-24d2t02.wav
     3:08.51       33283196    ---   --   -----   zero1998-05-24d2t03.wav
     1:00.31       10656956    ---   --   -----   zero1998-05-24d2t04.wav
    10:12.09      107978012    ---   --   -----   zero1998-05-24d2t05.wav
     8:37.44       91302332    ---   --   -----   zero1998-05-24d2t06.wav
     1:03.51       11233196    ---   --   -----   zero1998-05-24d2t07.wav
    12:19.74      130533692    ---   --   -----   zero1998-05-24d2t08.wav
     8:10.73       86607740    ---   --   -----   zero1998-05-24d2t09.wav
    14:23.34      152313212    ---   --   -----   zero1998-05-24d2t10.wav
     7:52.19       83305532    ---   --   -----   zero1998-05-24d2t11.wav
   148:32.02     1572082296 B                     (totals for 18 files)
Show Checksums
ffp
zero1998-05-24d1t01.flac:48f2f2152de0ed9e886825b74e5a3c87
zero1998-05-24d1t02.flac:3b0181214180012893ba0f3d959a0520
zero1998-05-24d1t03.flac:7815c6dbbee6ca519aa411bd7ad87d7b
zero1998-05-24d1t04.flac:6e4718eaa26500972f77b58b87d1162a
zero1998-05-24d1t05.flac:25a9fd79c7283be24fe051d4bcc3fa67
zero1998-05-24d1t06.flac:e2ca840b7b0508d723dbec96b12a88de
zero1998-05-24d1t07.flac:b4fdc8c780dbd0023bd4e1720597af53
zero1998-05-24d2t01.flac:15b1d82f5872e24673026958eaad30be
zero1998-05-24d2t02.flac:c81c2f416be3a9a707c115e5da238ed0
zero1998-05-24d2t03.flac:e22ed2d8f20d90f07e9139c07b5abe5f
zero1998-05-24d2t04.flac:8bdc6845be746670b479c7b4bd9f1720
zero1998-05-24d2t05.flac:638b466b0dba112802740e63ea3a336c
zero1998-05-24d2t06.flac:aa1f675d11858291c58d083b2c50dc09
zero1998-05-24d2t07.flac:e0700cd11e8203c6c55c0d0733bc11f7
zero1998-05-24d2t08.flac:43e9cfdbb7e188d2931191a2a9c08804
zero1998-05-24d2t09.flac:d9f817e5db5ab5c973b0930f599baebe
zero1998-05-24d2t10.flac:dab48e11944ab1a8351f640ccd771182
zero1998-05-24d2t11.flac:8c5eac2a71999d1f17f8b0d8f63c7c2d
md5
2b6f414ee94392da0b6ca1440f9db773 *zero1998-05-24d1t01.flac
315ba92d484a8c0ea233ded32ac08fc5 *zero1998-05-24d1t02.flac
a941de63cc3106a20d778dba2101b426 *zero1998-05-24d1t03.flac
ee110406170ba6211810d307b81db619 *zero1998-05-24d1t04.flac
6a0c13190b69abe10c0252c664815bac *zero1998-05-24d1t05.flac
1b072a764998e2f8b59c00e698a6171a *zero1998-05-24d1t06.flac
e80650168d784c1157fbed7ca7db502b *zero1998-05-24d1t07.flac
bcdd11493443690fdbbe18917eb82c15 *zero1998-05-24d2t01.flac
6e325c631eff0e24266b9a93864d61c7 *zero1998-05-24d2t02.flac
10c4d00b2d99626c20de9f7e26ffc646 *zero1998-05-24d2t03.flac
1953cfc764db579de3415616d8495a91 *zero1998-05-24d2t04.flac
70f0f6b3186235816f8ab40e70855380 *zero1998-05-24d2t05.flac
eb3264bb34aa514ed5b14e7606ba8daa *zero1998-05-24d2t06.flac
e8ca12b027f9ccd2af1159b21d40098f *zero1998-05-24d2t07.flac
63457174a215a91232cc0c000aaddf19 *zero1998-05-24d2t08.flac
72ed4dc0bab024a4b54135f21819c53b *zero1998-05-24d2t09.flac
d119f5540f34e03c609f91c7ead071eb *zero1998-05-24d2t10.flac
17ab33c0fc54a41823a5e34b7f3ddecf *zero1998-05-24d2t11.flac

Comments
Add Comment
Date User Comment