Browse Collections Artists Sources   Search Dates

Add Show    List Management    Help


Zero 07/08/06
Oregon Country Fair Mainstage, Veneta, OR
Comments Add Comment    Source Collectors    Add to Collection    Add to Want List    History
Source # 76218 Other Sources
Entered by
Checksums ffp , md5
Disc Counts 1 / 2
Media Size
Date Circulated
Date Added
07/23/2006
07/31/2006
Source Summary SBD > CD > Samplitude > Flac Transferred and Mastered by Charlie Miller 
  Archive
Source Information - Download Text | Download Zip
Zero - July 8, 2006
Oregon Country Fair
Veneta, Oregon

Recording Info:
SBD -> CD

Transfer Info:
CD -> Samplitude Professional v7.02 -> FLAC
(2 Discs Audio / 1 Disc FLAC)

All Transfers and Mastering By Charlie Miller
[email protected]
July 23, 2006

Notes:
-- Encore patched from FM -> Dat -> Sound Forge -> CD
-- Visit Digitalsoundboard.net for Kimock downloads

Setlist:
d1t01 - Introductions
d1t02 - Pits Of Thunder
d1t03 - Crazy Fingers ->
d1t04 - Catalina
d1t05 - Golden Road
d1t06 - Gregg's Eggs
d1t07 - War At The End Of The World

Encore:
d2t01 - Mercury Blues

Lineup:
Steve Kimock - Guitars, Lap Steel
Greg Anton - Drums
Liam Hanrahan - Bass
Melvin Seals - Keys
John Morgan Kimock - Drums
Martin Fierro - Saxophone
Donna Jean Godchaux Mackay - Vocals
Jerry Joseph - Guitar, Vocals


SHNTOOL OUTPUT:
    length     expanded size   cdr  WAVE problems filename
     1:31.23       16106540    ---   --   -----   zero2006-07-08d1t01.wav
    13:53.49      147056492    ---   --   -----   zero2006-07-08d1t02.wav
    11:40.40      123574124    ---   --   -----   zero2006-07-08d1t03.wav
    13:04.40      138391724    ---   --   -----   zero2006-07-08d1t04.wav
    15:44.60      166662764    ---   --   -----   zero2006-07-08d1t05.wav
    13:11.15      139567724    ---   --   -----   zero2006-07-08d1t06.wav
    10:51.65      114989324    ---   --   -----   zero2006-07-08d1t07.wav
     8:06.45       85836284    ---   --   -----   zero2006-07-08d2t01.wav
    88:04.37      932184976 B                     (totals for 8 files)
Show Checksums
ffp
zero2006-07-08d1t01.flac:87ea8a721546033d0fb31309b0549d23
zero2006-07-08d1t02.flac:3a42dbd213c0afea36acfa27e99381c3
zero2006-07-08d1t03.flac:1bbbae2e8a1128fec99f486ef2041f04
zero2006-07-08d1t04.flac:bb4419a56c34397253f900f3c261626b
zero2006-07-08d1t05.flac:817543495696293d8581207cd640b76d
zero2006-07-08d1t06.flac:cf1f8b3b1a4b6fed874b024bc2af625c
zero2006-07-08d1t07.flac:c5038e69820bd037d77c7a307bb5a440
zero2006-07-08d2t01.flac:f7ea4a6becd022115ca2348678951998
md5
2d0b2d0ac181df2aacb4a11402ff7caf *zero2006-07-08d1t01.flac
bb510b92c23b017d256c1c70dbc7cd63 *zero2006-07-08d1t02.flac
2bcfac9b0a8c6343fdfafc632d347712 *zero2006-07-08d1t03.flac
bbf633430db2c732a4a255dc4eac846e *zero2006-07-08d1t04.flac
ab36d2be72577bcf0ee02bbf0bbfed38 *zero2006-07-08d1t05.flac
82d50a558b21e1c73eddc9a741b282f8 *zero2006-07-08d1t06.flac
c76dd916e2b51745ce3fec3ac18bd24b *zero2006-07-08d1t07.flac
b88df708258319c36ec09d5ccbea69fd *zero2006-07-08d2t01.flac

Comments
Add Comment
Other Sources (comments)
source: FM Broadcast >... (0)
Date User Comment