Browse Collections Artists Sources   Search Dates

Add Show    List Management    Help


Zero 02/13/93
The Wherehouse, Stateline, NV
Comments Add Comment    Source Collectors    Add to Collection    Add to Want List    History
Source # 76228 Other Sources
Entered by skbnut
Checksums ffp , md5
Disc Counts 2 / 2
Media Size
Date Circulated
Date Added
07/31/2006
07/31/2006
Source Summary SBD > Cm > Harmon Kardon TD4200 > Sony PC-R300 > NJB3 > CDWAV > Flac Recorded + Transferred by Lobster 
Source Information - Download Text | Download Zip
Zero
February 13, 1993
The Wherehouse
Stateline, NV

1.Baby Baby
2.Tangled Hangers
3.Horses
4.Catalina
5.End Of The World Blues
6.Mercury Blues

CD 2 - Set 2
1.Highway 61 Revisited
2.Home On The Range
3.Drums >
4.Gregg's Eggs
5.Chance In A Million
6.E: Like A Rolling Stone

Source: SBD > Sony D6 > MAC
Transfer: MAC > Harmon Kardon TD4200 >
Sony PC-R300 (LEVEL BOOST) > NJB3 > CDWAV > FFE
Recorded + Transferred by Lobster

ffp:
zero1993-02-13d1t01.flac:d53d18260b0c23d42a3dfc61d4748bb3
zero1993-02-13d1t02.flac:943dfc5b9753a09a6bd231c3fef766d0
zero1993-02-13d1t03.flac:1bccc564a9d0303e19e0462b84bd2aac
zero1993-02-13d1t04.flac:1a72dffcffb787baebd70d96a64db608
zero1993-02-13d1t05.flac:ddc40fa216246ede8d78e3bb36c79bd6
zero1993-02-13d1t06.flac:653708a29e70d7eef01748498e23c69c
zero1993-02-13d2t01.flac:838ec213f521ed8d54004201cedaf124
zero1993-02-13d2t02.flac:15eef223f9e50963fc7214b1d418804a
zero1993-02-13d2t03.flac:a4301eaf82654455136b10414f257ecd
zero1993-02-13d2t04.flac:d0141f4032c0c8981188b7349e906942
zero1993-02-13d2t05.flac:689541d2481d9414399fed33a80b3d5e
zero1993-02-13d2t06.flac:40e17d15ed72dbb34ae4524d6c429947

md5:
85d5a498b7858763d3dfb0f8c4c85df5 *zero1993-02-13d1t01.flac
a2398a8a3a01ce19c72c5c7b5e34ffb0 *zero1993-02-13d1t02.flac
618c36b9338146fb872a5699416af812 *zero1993-02-13d1t03.flac
fb8e91d8411f1baae68e2615f4056cd5 *zero1993-02-13d1t04.flac
c967d42963df09054d136193bcf384ee *zero1993-02-13d1t05.flac
bb6f242406f91e5e9ffda90e25565f9d *zero1993-02-13d1t06.flac
576f75cff9b6c371ea38d53a0d985e75 *zero1993-02-13d2t01.flac
fd48d65b6f769347e12a41d3bee9666d *zero1993-02-13d2t02.flac
872090e669b59db000cf67f1d698c11d *zero1993-02-13d2t03.flac
c8017738034ea269edd407a243e6b209 *zero1993-02-13d2t04.flac
47dbc1880e0e7a8f30f84c93b92c8f2b *zero1993-02-13d2t05.flac
724a1df77164d5952ab39e5216603ced *zero1993-02-13d2t06.flac

shntool:

    length     expanded size   cdr  WAVE problems filename
    13:26.00      142178444    ---   --   ---xx   zero1993-02-13d1t01.flac
    13:24.00      141825644    ---   --   ---xx   zero1993-02-13d1t02.flac
    11:43.00      124009244    ---   --   ---xx   zero1993-02-13d1t03.flac
    12:44.00      134769644    ---   --   ---xx   zero1993-02-13d1t04.flac
    13:47.00      145882844    ---   --   ---xx   zero1993-02-13d1t05.flac
     7:06.00       75146444    ---   --   ---xx   zero1993-02-13d1t06.flac
    11:36.00      122774444    ---   --   ---xx   zero1993-02-13d2t01.flac
    11:36.00      122774444    ---   --   ---xx   zero1993-02-13d2t02.flac
     6:55.00       73206044    ---   --   ---xx   zero1993-02-13d2t03.flac
    17:07.00      181162844    ---   --   ---xx   zero1993-02-13d2t04.flac
    11:22.00      120304844    ---   --   ---xx   zero1993-02-13d2t05.flac
    10:52.00      115012844    ---   --   ---xx   zero1993-02-13d2t06.flac
   141:38.00     1499047728 B                     (totals for 12 files, 0.5765 o
verall compression ratio)
Show Checksums
ffp
zero1993-02-13d1t01.flac:d53d18260b0c23d42a3dfc61d4748bb3
zero1993-02-13d1t02.flac:943dfc5b9753a09a6bd231c3fef766d0
zero1993-02-13d1t03.flac:1bccc564a9d0303e19e0462b84bd2aac
zero1993-02-13d1t04.flac:1a72dffcffb787baebd70d96a64db608
zero1993-02-13d1t05.flac:ddc40fa216246ede8d78e3bb36c79bd6
zero1993-02-13d1t06.flac:653708a29e70d7eef01748498e23c69c
zero1993-02-13d2t01.flac:838ec213f521ed8d54004201cedaf124
zero1993-02-13d2t02.flac:15eef223f9e50963fc7214b1d418804a
zero1993-02-13d2t03.flac:a4301eaf82654455136b10414f257ecd
zero1993-02-13d2t04.flac:d0141f4032c0c8981188b7349e906942
zero1993-02-13d2t05.flac:689541d2481d9414399fed33a80b3d5e
zero1993-02-13d2t06.flac:40e17d15ed72dbb34ae4524d6c429947
md5
85d5a498b7858763d3dfb0f8c4c85df5 *zero1993-02-13d1t01.flac
a2398a8a3a01ce19c72c5c7b5e34ffb0 *zero1993-02-13d1t02.flac
618c36b9338146fb872a5699416af812 *zero1993-02-13d1t03.flac
fb8e91d8411f1baae68e2615f4056cd5 *zero1993-02-13d1t04.flac
c967d42963df09054d136193bcf384ee *zero1993-02-13d1t05.flac
bb6f242406f91e5e9ffda90e25565f9d *zero1993-02-13d1t06.flac
576f75cff9b6c371ea38d53a0d985e75 *zero1993-02-13d2t01.flac
fd48d65b6f769347e12a41d3bee9666d *zero1993-02-13d2t02.flac
872090e669b59db000cf67f1d698c11d *zero1993-02-13d2t03.flac
c8017738034ea269edd407a243e6b209 *zero1993-02-13d2t04.flac
47dbc1880e0e7a8f30f84c93b92c8f2b *zero1993-02-13d2t05.flac
724a1df77164d5952ab39e5216603ced *zero1993-02-13d2t06.flac

Comments
Add Comment
Date User Comment