Browse Collections Artists Sources   Search Dates

Add Show    List Management    Help


Zero 03/27/98
Maritime Hall, San Francisco, CA
Comments Add Comment    Source Collectors    Add to Collection    Add to Want List    History
Source # 76239 Other Sources
Entered by skbnut
Checksums md5
Disc Counts 2 / 2
Media Size
Date Circulated
Date Added
07/31/2006
07/31/2006
Source Summary Unknown Mics > Dat > CD > EAC > Shn 
Source Information - Download Text | Download Zip
Zero - 3/27/98
Maritime Hall - San Francisco, CA

Source: Unknown Mics > Dat > CD > EAC > SHN

Set 1:

d1t01 - I Like My Women On The Trashy Side
d1t02 - Pits Of Thunder
d1t03 - Favela
d1t04 - Listen Here
d1t05 - Cripple Creek
d1t06 - Chance in a Million

Set 2:

d1t07 - It's Up to You* >
        It's Impossible* >
        It's Up to You*
d2t01 - Down in Brazil >
d2t02 - Highway 61 Revisited
d2t03 - End of the World Blues
d2t04 - Kissing the Boo Boo
d2t05 - Home On the Range

Encore:

d2t06 - Sun Sun Sun >
        Gregg's Eggs intro >
        Sun Sun Sun >
        Riders On The Storm >
        Catalina >
        Sun Sun Sun

Comment:
Lonnie Showtime on bongos from end of Pits on �
Alan Hurts-drums
Ray White-guitar
Greg Anton on some percussion too


SHNTOOL OUTPUT:

    length     expanded size   cdr  WAVE problems filename
     7:26.66       78829676    ---   --   -----   zero1998-03-27d1t01.wav
    12:27.08      131789660    ---   --   -----   zero1998-03-27d1t02.wav
     8:30.34       90044012    ---   --   -----   zero1998-03-27d1t03.wav
    12:08.46      128527436    ---   --   -----   zero1998-03-27d1t04.wav
    12:41.02      134245148    ---   --   -----   zero1998-03-27d1t05.wav
    10:18.67      109172828    ---   --   -----   zero1998-03-27d1t06.wav
    16:22.44      173328332    ---   --   -----   zero1998-03-27d1t07.wav
    10:12.72      108126188    ---   --   -----   zero1998-03-27d2t01.wav
    12:14.18      129519980    ---   --   -----   zero1998-03-27d2t02.wav
    12:28.42      132046028    ---   --   -----   zero1998-03-27d2t03.wav
     7:22.62       78114668    ---   --   -----   zero1998-03-27d2t04.wav
    14:07.62      149556668    ---   --   -----   zero1998-03-27d2t05.wav
    14:57.66      158386076    ---   --   -----   zero1998-03-27d2t06.wav
   151:19.64     1601686700 B                     (totals for 13 files, 1.0000 overall compression ratio)



Show Checksums
md5
fad87bb4153dd90797195cce59e5378a *zero1998-03-27d1t04.shn
5df1e22637f9f9bce9aa7ad28280b582 *zero1998-03-27d1t02.shn
58c99b29659dd0fe8f6a08d71007b145 *zero1998-03-27d1t03.shn
7f516f585d26394de6301639e3fb35e6 *zero1998-03-27d1t01.shn
88d44e418ccc509550dbb77ab7666f1a *zero1998-03-27d1t05.shn
eeaf7b11ad2146a8a484deb0c6f12941 *zero1998-03-27d1t06.shn
8596751d988b19b0371d1e5607401ff8 *zero1998-03-27d1t07.shn
8c497def68520a2a093a056e9f0f7f19 *zero1998-03-27d2t01.shn
a939cdc66d22e549aabbac96a20cdc72 *zero1998-03-27d2t02.shn
0f76754e1fc5a4fa429b5233cf1f3d9a *zero1998-03-27d2t03.shn
7a07d48ea7ea166ad7d5965f7e6a4cb8 *zero1998-03-27d2t04.shn
15f83f3de564d44b0b611c9d371b11f4 *zero1998-03-27d2t05.shn
c5ce40826ce1c722cbd4572cfee99221 *zero1998-03-27d2t06.shn

Comments
Add Comment
Date User Comment