Browse Collections Artists Sources   Search Dates

Add Show    List Management    Help


Grateful Dead 12/08/89
Great Western LA Forum, Inglewood, CA
Comments Add Comment    Source Collectors    Add to Collection    Add to Want List    History
Source # 76251 Other Sources
Entered by Matt Vernon
Checksums flac-md5 , ffp
Disc Counts 2 / 3
Media Size
Date Circulated
Date Added
08/01/2006
08/01/2006
Source Summary flac16; Ambient recording master by Mike French - Tapers From Hell From the Impact Zone, fob,dfc (same spot as entire 02-89 run, and entire 12-89 run) Sennheiser MKE2002 omni's HRTF stealth stereo -> Sony TC-D5M to 24/96 pcm: Sony TC-D5M and cassette master, no n.r. -> Tascam DVRA1000 in pcm mode @24/96 to flac: Tascam DVRA1000 in usb2.0 mode, master disc file import -> Mac G4 OS-X Tiger. Flac compression (6/8) by xACT by Scott Brown -> 16/44 conversion - shntool join -> Wavelabs 5: converted to 44100hz -> Isotope Ozone - dither: type mbit+, noise shaping high, bit depth 16, dither amount normal -> Wavelab - processed to 16bit -> Audacity: tracking only -> ffe l6 sector boundaries aligned>id3 tag <-Seamless transition between Discs 2 and 3->  
  Archive
Source Information - Download Text | Download Zip
Grateful Dead

December 08, 1989

The Fabulous Forum (Great Western Forum to the non-locals)
Minglewood, CA

Ambient recording master by Mike French - Tapers From Hell
From the Impact Zone, fob,dfc (same spot as entire 02-89 run, and entire 12-89 run)
Sennheiser MKE2002 omni's HRTF stealth stereo -> Sony TC-D5M

to 24/96 pcm:
Sony TC-D5M and cassette master, no n.r. -> Tascam DVRA1000 in pcm mode @24/96

to flac:
Tascam DVRA1000 in usb2.0 mode, master disc file import -> Mac G4 OS-X Tiger.
Flac compression (6/8) by xACT by Scott Brown -> 16/44 conversion - shntool join -> Wavelabs 5:
converted to 44100hz -> Isotope Ozone - dither: type mbit+, noise shaping high, bit depth 16,
dither amount normal -> Wavelab - processed to 16bit -> Audacity: tracking only ->
ffe l6 sector boundaries aligned>id3 tag <-Seamless transition between Discs 2 and 3->


set one - disc 1/3
01) audience in...
02) Let the Good Times Roll
03) Feel Like a Stranger
04) Stagger Lee
05) Beat It On Down the Line
06) Ramble On Rose
07) Cassidy
08) Blow Away


set two - disc 2/3
01) tuning
02) Help On the Way ->
03) Slipknot ->
04) Franklin's Tower
05) Looks Like Rain ->
06) He's Gone ->
07) Drumz ->
08) Space ->

set two - disc 3/3
09) I Will Take You Home ->
10) The Other One ->
11) Wharf Rat ->
12) Throwin' Stones ->
13) Not Fade Away
14) Encore: U.S. Blues

"Other One" teases before and after "Drumz"



enjoy!

Peace and wellness to you and yours
Mike

____________________________________________________________________________________________________________
16/44.1 conversion by Bob Loy - notes: the only changes I made b4 converting were to apply a new crossfade
@ the open of set one to remove a rather nasty (mic stand bump - balloon pop?) and a new crossfade at the
close of set two to replace a rather abrupt fade that was there. I also patched 22 seconds of crowd during
nfa chant from shnid 8961 @ 9:55 - 10:17 w/ crossfades and adjusted volume to match . absolutely no eq,nr.
Thanks to SirMick for some tips to get this converted correctly.

and still... the music never stops! Completed August 1st 2006, Happy Birthday Jerry!



    length     expanded size   cdr  WAVE problems filename
     3:16.01       34576796    ---   --   ---xx   gd89-12-08d1t01.flac
     4:33.60       48298364    ---   --   ---xx   gd89-12-08d1t02.flac
     9:48.04      103732652    ---   --   ---xx   gd89-12-08d1t03.flac
     8:09.42       86358428    ---   --   ---xx   gd89-12-08d1t04.flac
     3:13.25       34104044    ---   --   ---xx   gd89-12-08d1t05.flac
     8:04.15       85412924    ---   --   ---xx   gd89-12-08d1t06.flac
     6:38.10       70230764    ---   --   ---xx   gd89-12-08d1t07.flac
    11:54.46      126057836    ---   --   ---xx   gd89-12-08d1t08.flac
     2:42.19       28621532    ---   --   ---xx   gd89-12-08d2t01.flac
     3:52.67       41082428    ---   --   ---xx   gd89-12-08d2t02.flac
     7:32.41       79829276    ---   --   ---xx   gd89-12-08d2t03.flac
     8:43.24       92313692    ---   --   ---xx   gd89-12-08d2t04.flac
     9:32.08      100919660    ---   --   ---xx   gd89-12-08d2t05.flac
    12:52.32      136256108    ---   --   ---xx   gd89-12-08d2t06.flac
     6:45.43       71543180    ---   --   ---xx   gd89-12-08d2t07.flac
     7:26.10       78697964    ---   --   ---xx   gd89-12-08d2t08.flac
     4:10.12       44128268    ---   --   ---xx   gd89-12-08d3t01.flac
     9:33.01      101079596    ---   --   ---xx   gd89-12-08d3t02.flac
     9:53.07      104621708    ---   --   ---xx   gd89-12-08d3t03.flac
     9:11.61       97339916    ---   --   ---xx   gd89-12-08d3t04.flac
    11:36.10      122797964    ---   --   ---xx   gd89-12-08d3t05.flac
     5:52.64       62243372    ---   --   ---xx   gd89-12-08d3t06.flac
   165:22.02     1750246472 B                     (totals for 22 files, 0.6039 overall compression ratio)
Show Checksums
flac-md5
0856cab256c1bcf83c7a5a1d9dd53e60 *gd89-12-08d1t01.flac
0110a7b18d627df78d59bf72b02b9ee2 *gd89-12-08d1t02.flac
9947aeb3d793e3740fc6ef585c1b2458 *gd89-12-08d1t03.flac
1bf7f25d47883a5050f4f5db624af988 *gd89-12-08d1t04.flac
cd5532f6ec6ecb61880ce1b01af15615 *gd89-12-08d1t05.flac
2b743342a321c17370f786517bfb09c5 *gd89-12-08d1t06.flac
05631d8ae4cd694d4cb691634c4db1cf *gd89-12-08d1t07.flac
52edc4f213f8a73e905fcde7efa491eb *gd89-12-08d1t08.flac
55ccdf898fbd3d514be1be3075eb0798 *gd89-12-08d2t01.flac
c255f17cf1b49aada7319d8188a1f230 *gd89-12-08d2t02.flac
0fc585f159075507ad2b6437ef8b2ac6 *gd89-12-08d2t03.flac
b6dee9a2098d8c7d7c61738c3d545972 *gd89-12-08d2t04.flac
3ac7b4261084e3c9d77821a73e0c2767 *gd89-12-08d2t05.flac
9a09897094d62345a56725c56d1224d3 *gd89-12-08d2t06.flac
39049ed3b7a2b4573bbe841bf836af72 *gd89-12-08d2t07.flac
be6863b3aa4dbe03574ee0f02ed91740 *gd89-12-08d2t08.flac
33d8f20c542d1f672306b976904e523f *gd89-12-08d3t01.flac
52848b239d39e3d089047d7b180a4dc1 *gd89-12-08d3t02.flac
ecc539d7176b2574157f16c4a560596e *gd89-12-08d3t03.flac
3780f671e2d64e11154e65889ee4daf8 *gd89-12-08d3t04.flac
c8248e6c6b39b5cf43a5250d124347d5 *gd89-12-08d3t05.flac
4b602dcc68cb7b17eb1d9fc256a3e32f *gd89-12-08d3t06.flac
ffp
gd89-12-08d1t01.flac:91f40be7d5d1dc004b59ad079845f9dd
gd89-12-08d1t02.flac:eec35267d92ba4012a3c2df2b10e983e
gd89-12-08d1t03.flac:c18062fc82bc4959b4d1ad9c7f21e6c2
gd89-12-08d1t04.flac:78430ae72b155ead5c988ae65d2bfebb
gd89-12-08d1t05.flac:ae19344780998243cdca9f28e3526833
gd89-12-08d1t06.flac:9a532868e658df99aafbfaa3905b5069
gd89-12-08d1t07.flac:0b1d762798a4413296275a7be80c5238
gd89-12-08d1t08.flac:f03fb986087de9cef39f1c4a0836b6a0
gd89-12-08d2t01.flac:87f33dda2a9a477dd1311d7da948ff2a
gd89-12-08d2t02.flac:e827cc28b8f49d1094f59fcfcbe98b11
gd89-12-08d2t03.flac:299ed46e9c1a008c1cd7e11cea244923
gd89-12-08d2t04.flac:62b4ebe29a184ca8efea42228c7c41d0
gd89-12-08d2t05.flac:d9cf093dca86bf32ef318dc9febb7786
gd89-12-08d2t06.flac:de1286433ef66be543515db33f99bd2c
gd89-12-08d2t07.flac:29b3c4c6fc7cf601c4f1e78c8eea8363
gd89-12-08d2t08.flac:69ea21c24edc2005b74ca3f630d9f6e8
gd89-12-08d3t01.flac:a489005f9fac635ed28085ce245ab857
gd89-12-08d3t02.flac:a569ae130f0376b169a6e7fe5144f1e8
gd89-12-08d3t03.flac:4d5a4bd18fb08a3c434146bd73a1607e
gd89-12-08d3t04.flac:05956ea17535506e4bd828afb03cc332
gd89-12-08d3t05.flac:8ec2f1da401a42ec087a31140635e5a6
gd89-12-08d3t06.flac:476988b23a8d9d1d186cb280beae806d

Comments
Add Comment
Other Sources (comments)
AUD>DAT>CDR; Seeded to... (0) Source: Set 1... (0) flac24; Ambient... (0) flac16; SBD -> Dat... (0) flac16; Recording... (0) flac24; Recording... (0) flac16; Recording... (0)
Date User Comment