Browse Collections Artists Sources   Search Dates

Add Show    List Management    Help


Grateful Dead 12/09/89
Great Western LA Forum, Inglewood, CA
Comments Add Comment    Source Collectors    Add to Collection    Add to Want List    History
Source # 76273 Other Sources
Entered by Matt Vernon
Checksums flac-md5 , ffp
Disc Counts 2 / 2
Media Size
Date Circulated
Date Added
08/02/2006
08/01/2006
Source Summary flac16; Ambient recording master by Mike French - Tapers From Hell From the Impact Zone, fob,dfc (same spot as entire 02-89 run, and entire 12-89 run) Sennheiser MKE2002 omni's HRTF stealth stereo -> Sony TC-D5M to 24/96 pcm: Sony TC-D5M and cassette master, no n.r. -> Tascam DVRA1000 in pcm mode @24/96 All x'fers up to flac / master disc burn, by Mike French to flac: Tascam DVRA1000 in usb2.0 mode, master disc file import -> Mac G4 OS-X Tiger. Flac compression (6/8) by xACT by Scott Brown -> 16/44 conversion by Bob Loy -> shntool join -> Wavelabs 5: converted to 44100hz -> Isotope Ozone - dither: type mbit+, noise shaping high, bit depth 16, dither amount normal -> Wavelab - processed to 16bit -> Audacity: tracking only -> ffe l6 sector boundaries aligned -> id3 tag <-Seamless transition between Discs 1 and 2-> 
  Archive
Source Information - Download Text | Download Zip
Grateful Dead

December 9, 1989 saturday

The Fabulous Forum (Great Western Forum to the non-locals)
Minglewood, CA

Ambient recording master by Mike French - Tapers From Hell
From the Impact Zone, fob,dfc (same spot as entire 02-89 run, and entire 12-89 run)
Sennheiser MKE2002 omni's HRTF stealth stereo -> Sony TC-D5M

to 24/96 pcm:
Sony TC-D5M and cassette master, no n.r. -> Tascam DVRA1000 in pcm mode @24/96
All x'fers up to flac / master disc burn, by Mike French

to flac:
Tascam DVRA1000 in usb2.0 mode, master disc file import -> Mac G4 OS-X Tiger.
Flac compression (6/8) by xACT by Scott Brown ->

16/44 conversion by Bob Loy -> shntool join -> Wavelabs 5: converted to 44100hz ->
Isotope Ozone - dither: type mbit+, noise shaping high, bit depth 16, dither amount normal ->
Wavelab - processed to 16bit -> Audacity: tracking only -> ffe l6 sector boundaries aligned ->
id3 tag <-Seamless transition between Discs 1 and 2->


set one:
disc 1/2
d1t01 audience in...
d1t02 Touch of Grey
d1t03 New Minglewood Blues
d1t04 Row Jimmy
d1t05 Mexicali Blue ->
d1t06 Cumberland Blues
d1t07 *Bird Song
d1t08 One More Saturday Night

set two:
d1t09 Tuning
d1t10 Foolish Heart

disc 2/2
d2t01 Playin' in the Band ->
d2t02 Crazy Fingers ->
d2t03 Uncle John's Band ->
d2t04 Playin' in the Band ->
d2t05 Drumz ->
d2t06 Space ->
d2t07 Dear Mr. Fantasy ->
d2t08 Hey Jude Finale ->
d2t09 Turn on Your Lovelight
d2t10 Encore: Knockin' on Heaven's Door

*"Bird Song" appears on "Without A Net"


This was a wonderfully played concert!
enjoy! peace and wellness to you and yours

Mike


D>shntool len *d1*
    length     expanded size   cdr  WAVE problems filename
     1:04.19       11334332    ---   --   ---xx   gd89-12-09d1t01.flac
     7:46.31       82275356    ---   --   ---xx   gd89-12-09d1t02.flac
     9:11.32       97271708    ---   --   ---xx   gd89-12-09d1t03.flac
    13:17.16      140628476    ---   --   ---xx   gd89-12-09d1t04.flac
     4:21.53       46165100    ---   --   ---xx   gd89-12-09d1t05.flac
     5:28.49       57974492    ---   --   ---xx   gd89-12-09d1t06.flac
    13:29.55      142837004    ---   --   ---xx   gd89-12-09d1t07.flac
     5:05.62       53947868    ---   --   ---xx   gd89-12-09d1t08.flac
     1:30.30       15946604    ---   --   ---xx   gd89-12-09d1t09.flac
     9:22.65       99289724    ---   --   ---xx   gd89-12-09d1t10.flac
    70:38.37      747670664 B                     (totals for 10 files, 0.5462 overall compression ratio)

D>shntool len *d2*
    length     expanded size   cdr  WAVE problems filename
     9:07.41       96587276    ---   --   ---xx   gd89-12-09d2t01.flac
     8:26.73       89430140    ---   --   ---xx   gd89-12-09d2t02.flac
    10:19.40      109285724    ---   --   ---xx   gd89-12-09d2t03.flac
     3:07.19       33031532    ---   --   ---xx   gd89-12-09d2t04.flac
     5:31.17       58428428    ---   --   ---xx   gd89-12-09d2t05.flac
    15:39.71      165806636    ---   --   ---xx   gd89-12-09d2t06.flac
     5:33.34       58821212    ---   --   ---xx   gd89-12-09d2t07.flac
     2:36.31       27591356    ---   --   ---xx   gd89-12-09d2t08.flac
     7:49.54       82858652    ---   --   ---xx   gd89-12-09d2t09.flac
     8:04.52       85499948    ---   --   ---xx   gd89-12-09d2t10.flac
    76:16.57      807340904 B                     (totals for 10 files, 0.5651 overall compression ratio)
Show Checksums
flac-md5
412e6fd6cbd35131365c08eb675f47f0 *gd89-12-09d1t01.flac
bb8fb3249d0df399e69413932d440f3e *gd89-12-09d1t02.flac
fc363fa7c11f7c875d7e58282d9bc7cb *gd89-12-09d1t03.flac
1ca6b35ff854b421f7210b974c7c6aae *gd89-12-09d1t04.flac
161e6296afc37e0d237ca199abe9bf0c *gd89-12-09d1t05.flac
f09944cfee6d5d4628f23407df0e0200 *gd89-12-09d1t06.flac
bf43d4704f995d7a8116ddc3f734d4bf *gd89-12-09d1t07.flac
f9f3af97a2ce66bd2651a367db781c6f *gd89-12-09d1t08.flac
b682d156645f19013d89e8c6bbeb0438 *gd89-12-09d1t09.flac
763eeba2d02028aceba89a380da10cf1 *gd89-12-09d1t10.flac
f5b8eccf52fcc43da57f05f0e092187f *gd89-12-09d2t01.flac
977b48807a226f0b11474fbbfd9c8cc0 *gd89-12-09d2t02.flac
ad81f6aa64a49a1743ad707e6c5d71c3 *gd89-12-09d2t03.flac
7bb9a5aeec6b59f9229cae0b72e72ae0 *gd89-12-09d2t04.flac
96203392f66baa31be9a7b0a6d82ce9b *gd89-12-09d2t05.flac
e76e377e751165aa6950b751bc2a8887 *gd89-12-09d2t06.flac
287f5541a6a3068c05742b7690706d35 *gd89-12-09d2t07.flac
cf4e68265a9ac4e92e54c178c62f6215 *gd89-12-09d2t08.flac
0e88c0e211725370b6d0308dd2b40f1d *gd89-12-09d2t09.flac
ea4c504b62cdf976599dce292372c07c *gd89-12-09d2t10.flac
ffp
gd89-12-09d1t01.flac:c1b0591b098577b63ce3313fb0133b6f
gd89-12-09d1t02.flac:b5359a0a7365216732c7fd23f39afd73
gd89-12-09d1t03.flac:510230c9ec01a1464de4b9f409b30089
gd89-12-09d1t04.flac:625e3b3fe45cf488dba061f181dcb3ee
gd89-12-09d1t05.flac:f93f86dde3ba52febe17dbedf6f84bb8
gd89-12-09d1t06.flac:a30d1cc45f6a5b80732a5d6c84b2ec60
gd89-12-09d1t07.flac:7d0e5b34b296fa325dd7a865d5350904
gd89-12-09d1t08.flac:f4baedf39806da1351fec793b7b0e967
gd89-12-09d1t09.flac:3d77509fc64dc53f3de82ec965a0dbbc
gd89-12-09d1t10.flac:e129820b31a8dd4b49bb4b2e7b649f07
gd89-12-09d2t01.flac:472e0fe34802bb6b177c6e78b643e480
gd89-12-09d2t02.flac:396881e7427b7d976694b25039f7be08
gd89-12-09d2t03.flac:0288c583cff72ce2d46f3031b232f7cc
gd89-12-09d2t04.flac:0f58408ffb209879601a8e7bc03036df
gd89-12-09d2t05.flac:0b52f4c4d0bf3a919a9d25d3b355374d
gd89-12-09d2t06.flac:24a41d98f4aaa4d29af1803d4d0168c8
gd89-12-09d2t07.flac:9bfaf03843d11c68f7c97f59842ccb06
gd89-12-09d2t08.flac:9c47790c16879693c5f55bd367bdc589
gd89-12-09d2t09.flac:37390be58fe16abfe5a231c5bfdcddeb
gd89-12-09d2t10.flac:3ed55583cf22a170aec6ef0bab04eee8

Comments
Add Comment
Other Sources (comments)
SBD > DAT > CDR > WAV >... (0) Source: SBD > DAT > CDR >... (0) flac24; Ambient... (0) flac16; Source:... (0) flac24; Recording... (5) flac16/48 ... (0) flac16; Recording... (0) flac16/48kHz;... (0)
Date User Comment