Browse Collections Artists Sources   Search Dates

Add Show    List Management    Help


Grateful Dead 09/15/87
Madison Square Garden, New York, NY
Comments Add Comment    Source Collectors    Add to Collection    Add to Want List    History
Source # 76347 Other Sources
Entered by Matt Vernon
Checksums ffp , flac-md5
Disc Counts 2 / 3
Media Size
Date Circulated
Date Added
08/03/2006
08/04/2006
Source Summary flac16; Recording Info: SBD -> Cassette Master (Sony D6/TDK MA-R90) Transfer Info: Cassette Master (Sony TC-WE475) -> Apogee MiniMe -> Samplitude v7.02 Professional -> FLAC (2 Discs Audio / 2 Discs FLAC) All Transfers and Mastering By Charlie Miller 
  Archive
Source Information - Download Text | Download Zip
Grateful Dead - September 15, 1987
Madison Square Garden - New York, NY

Recording Info:
SBD -> Cassette Master (Sony D6/TDK MA-R90)

Transfer Info:
Cassette Master (Sony TC-WE475) -> Apogee MiniMe ->
Samplitude v7.02 Professional -> FLAC
(2 Discs Audio / 2 Discs FLAC)

All Transfers and Mastering By Charlie Miller
[email protected]
August 3, 2006

Notes:
-- Disc change is seamless
-- Watchtower tease after Gimme Some Lovin'
-- All Transfers and Mastering done in 24bit/48k
-- Resampled and dithered to 16bit/44.k1 with Samplitude
-- This is an upgrade to all other circulating copies
-- Thanks to Steve Marcus for lending me his masters
-- Flaws in Minglewood and When Push comes To Shove fixed

Set One:
d1t01 - Hey Pocky Way
d1t02 - Minglewood Blues
d1t03 - When Push Comes To Shove
d1t04 - Equipment Problems/Beer Barrel Polka
d1t05 - Me And My Uncle ->
d1t06 - Mexicali Blues
d1t07 - Row Jimmy
d1t08 - Queen Jane Approximately
d1t09 - Tennessee Jed
d1t10 - The Music Never Stopped

Set Two:
d1t11 - China Cat Sunflower ->
d1t12 - I Know You Rider
d2t01 - Estimated Prophet ->
d2t02 - Eyes Of The World ->
d2t03 - Drums ->
d2t04 - Space ->
d2t05 - The Wheel ->
d2t06 - Gimme Some Lovin' ->
d2t07 - Black Peter ->
d2t08 - Sugar Magnolia

Encore:
d2t09 - It's All Over Now, Baby Blue


SHNTOOL OUTPUT:
    length     expanded size   cdr  WAVE problems filename
     5:18.61       56238716    ---   --   -----   gd87-09-15d1t01.wav
     8:46.21       92835836    ---   --   -----   gd87-09-15d1t02.wav
     6:22.63       67533020    ---   --   -----   gd87-09-15d1t03.wav
     2:55.54       30997052    ---   --   -----   gd87-09-15d1t04.wav
     2:55.66       31025276    ---   --   -----   gd87-09-15d1t05.wav
     6:00.63       63652220    ---   --   -----   gd87-09-15d1t06.wav
    10:22.74      109894892    ---   --   -----   gd87-09-15d1t07.wav
     6:36.63       70002620    ---   --   -----   gd87-09-15d1t08.wav
     8:14.34       87221612    ---   --   -----   gd87-09-15d1t09.wav
     8:01.43       84949580    ---   --   -----   gd87-09-15d1t10.wav
     5:55.49       62737292    ---   --   -----   gd87-09-15d1t11.wav
     6:35.41       69774476    ---   --   -----   gd87-09-15d1t12.wav
    11:08.26      117896396    ---   --   -----   gd87-09-15d2t01.wav
     9:20.07       98800508    ---   --   -----   gd87-09-15d2t02.wav
     7:02.62       74586668    ---   --   -----   gd87-09-15d2t03.wav
     7:39.27       81031148    ---   --   -----   gd87-09-15d2t04.wav
     4:44.67       50255228    ---   --   -----   gd87-09-15d2t05.wav
     4:53.50       51802844    ---   --   -----   gd87-09-15d2t06.wav
     8:31.05       90152204    ---   --   -----   gd87-09-15d2t07.wav
    10:38.47      112653788    ---   --   -----   gd87-09-15d2t08.wav
     7:38.09       80812412    ---   --   -----   gd87-09-15d2t09.wav
   149:44.32     1584853788 B                     (totals for 21 files)
Show Checksums
ffp
gd87-09-15d1t01.flac:f8adb492be5246524ac261f059cbd18e
gd87-09-15d1t02.flac:c5002d5e263ee5db4b0c7745f1b7e055
gd87-09-15d1t03.flac:1a96b860c0b10872feb6149a71d44f39
gd87-09-15d1t04.flac:cc383d4e7bbf6b547bc5c25d1eb24fae
gd87-09-15d1t05.flac:b5787e673a5f945e81862fb7e6c78043
gd87-09-15d1t06.flac:9d56be11c9aa80b2bdf7ae9bbcf9e70d
gd87-09-15d1t07.flac:9df5a21866faba18b442aa965dcac41f
gd87-09-15d1t08.flac:f8b8e814d8e159e0d7fe52efdb2004b3
gd87-09-15d1t09.flac:69a0f4e0d398c7fba246060dde7b84ae
gd87-09-15d1t10.flac:64f42ce743bb130f559c0258eb3f5988
gd87-09-15d1t11.flac:cf634b070b148c446c165756bb488101
gd87-09-15d1t12.flac:478716829a1f643ee7beb1ec620d1f97
gd87-09-15d2t01.flac:4551b74612e9ced6e13b00fba2ce6bab
gd87-09-15d2t02.flac:98cf2ca0f945c773a78797ea5e82be57
gd87-09-15d2t03.flac:f709dcdb2818ed3a50223086f5fcc8c7
gd87-09-15d2t04.flac:1941bc7d8abb1145d43c333f98a3ba78
gd87-09-15d2t05.flac:530d43d680df1a37986f6dc8db6d8bdc
gd87-09-15d2t06.flac:5eb0300268911b2ddff71732dcb234a8
gd87-09-15d2t07.flac:73a8e96016d2526b86a441a488dfcb40
gd87-09-15d2t08.flac:4a35c20afe00fcb45c2ee05a9ec4e4bf
gd87-09-15d2t09.flac:c43da32ef551f914277d612eed081764
flac-md5
123848145675e648fbe2fa422c3207c3 *gd87-09-15d1t01.flac
48451b5e18292d21ab1d83d015a95bb2 *gd87-09-15d1t02.flac
6d4952efc015d934ac06f0130e21ed2d *gd87-09-15d1t03.flac
5c4a6abb44193337e8b7d169d318129a *gd87-09-15d1t04.flac
b74acf813ab8ff7c2b7f465dd6e2675a *gd87-09-15d1t05.flac
d69f9c69ca4b18adee5c094c18ce502f *gd87-09-15d1t06.flac
ad31b18968e78502a4423d79f685a564 *gd87-09-15d1t07.flac
d3ad703d59a8bcafcf1e42b15c2442a1 *gd87-09-15d1t08.flac
77f49217f3cc9e757f728a9363b5c32c *gd87-09-15d1t09.flac
006291f252ad34f36b15d6c3271f3629 *gd87-09-15d1t10.flac
e595b5654ac6355d2b4ea11b69c84ff6 *gd87-09-15d1t11.flac
02c012f38f8c46d443312919676e312e *gd87-09-15d1t12.flac
e8220104bdbf7fa9fe4b2b3e664de1f0 *gd87-09-15d2t01.flac
5da99142495d0c857df6363505853aa0 *gd87-09-15d2t02.flac
553cd2084d0094d8c174fcd2d899b00b *gd87-09-15d2t03.flac
5a2f90f97c2de5504bac2ce385d5d994 *gd87-09-15d2t04.flac
6af365727a28c4335cacf7f51e9f3699 *gd87-09-15d2t05.flac
fbd92cef8149dbf3fa808afc665b3b35 *gd87-09-15d2t06.flac
dc6fd9a71ffd9f099fb97cd8e058defc *gd87-09-15d2t07.flac
c141add6890dcc2fee8edc290fb7cb0c *gd87-09-15d2t08.flac
177ef91e4422f15c27f46610ee4459e5 *gd87-09-15d2t09.flac

Comments
Add Comment
Other Sources (comments)
AUD (Schoeps CMC... (0) SBD:CM>DATs>CDRs (0) SBD -> Cassette Master ->... (0) flac16; taper : Joe... (0) flac24; 24bit/48kHz... (0) Taper: M.Laurentus Taper... (0)
Date User Comment